  0
SECTION
  2
HEADER
  9
$ACADVER
  1
AC1015
  9
$ACADMAINTVER
 70
    10
  9
$DWGCODEPAGE
  3
ANSI_932
  9
$INSBASE
 10
0.0
 20
0.0
 30
0.0
  9
$EXTMIN
 10
6.415192006266806
 20
-0.0434608080022372
 30
-0.000000000000013
  9
$EXTMAX
 10
4001.267669932391
 20
2787.58073247471
 30
0.0000000000000023
  9
$LIMMIN
 10
0.0
 20
0.0
  9
$LIMMAX
 10
4081.8
 20
2849.9
  9
$ORTHOMODE
 70
     0
  9
$REGENMODE
 70
     1
  9
$FILLMODE
 70
     1
  9
$QTEXTMODE
 70
     0
  9
$MIRRTEXT
 70
     0
  9
$LTSCALE
 40
10.0
  9
$ATTMODE
 70
     1
  9
$TEXTSIZE
 40
25.0
  9
$TRACEWID
 40
0.05
  9
$TEXTSTYLE
  7
M7
  9
$CLAYER
  8
1
  9
$CELTYPE
  6
BYLAYER
  9
$CECOLOR
 62
   256
  9
$CELTSCALE
 40
1.0
  9
$DISPSILH
 70
     0
  9
$DIMSCALE
 40
10.0
  9
$DIMASZ
 40
0.8
  9
$DIMEXO
 40
1.0
  9
$DIMDLI
 40
5.0
  9
$DIMRND
 40
0.0
  9
$DIMDLE
 40
0.0
  9
$DIMEXE
 40
1.5
  9
$DIMTP
 40
0.0
  9
$DIMTM
 40
0.0
  9
$DIMTXT
 40
3.5
  9
$DIMCEN
 40
1.0
  9
$DIMTSZ
 40
0.0
  9
$DIMTOL
 70
     0
  9
$DIMLIM
 70
     0
  9
$DIMTIH
 70
     0
  9
$DIMTOH
 70
     0
  9
$DIMSE1
 70
     0
  9
$DIMSE2
 70
     0
  9
$DIMTAD
 70
     1
  9
$DIMZIN
 70
     0
  9
$DIMBLK
  1

  9
$DIMASO
 70
     1
  9
$DIMSHO
 70
     0
  9
$DIMPOST
  1

  9
$DIMAPOST
  1

  9
$DIMALT
 70
     0
  9
$DIMALTD
 70
     2
  9
$DIMALTF
 40
25.4
  9
$DIMLFAC
 40
1.0
  9
$DIMTOFL
 70
     1
  9
$DIMTVP
 40
0.0
  9
$DIMTIX
 70
     0
  9
$DIMSOXD
 70
     0
  9
$DIMSAH
 70
     0
  9
$DIMBLK1
  1

  9
$DIMBLK2
  1

  9
$DIMSTYLE
  2
STANDARD
  9
$DIMCLRD
 70
     1
  9
$DIMCLRE
 70
     1
  9
$DIMCLRT
 70
     1
  9
$DIMTFAC
 40
0.8571428571428571
  9
$DIMGAP
 40
1.0
  9
$DIMJUST
 70
     0
  9
$DIMSD1
 70
     0
  9
$DIMSD2
 70
     0
  9
$DIMTOLJ
 70
     1
  9
$DIMTZIN
 70
     0
  9
$DIMALTZ
 70
     0
  9
$DIMALTTZ
 70
     0
  9
$DIMUPT
 70
     0
  9
$DIMDEC
 70
     0
  9
$DIMTDEC
 70
     0
  9
$DIMALTU
 70
     2
  9
$DIMALTTD
 70
     2
  9
$DIMTXSTY
  7
STANDARD
  9
$DIMAUNIT
 70
     0
  9
$DIMADEC
 70
     0
  9
$DIMALTRND
 40
0.0
  9
$DIMAZIN
 70
     0
  9
$DIMDSEP
 70
    46
  9
$DIMATFIT
 70
     3
  9
$DIMFRAC
 70
     0
  9
$DIMLDRBLK
  1

  9
$DIMLUNIT
 70
     2
  9
$DIMLWD
 70
    -2
  9
$DIMLWE
 70
    -2
  9
$DIMTMOVE
 70
     0
  9
$LUNITS
 70
     2
  9
$LUPREC
 70
     2
  9
$SKETCHINC
 40
0.1
  9
$FILLETRAD
 40
0.0
  9
$AUNITS
 70
     0
  9
$AUPREC
 70
     0
  9
$MENU
  1
A:\R13\WIN\ACAD
  9
$ELEVATION
 40
0.0
  9
$PELEVATION
 40
0.0
  9
$THICKNESS
 40
0.0
  9
$LIMCHECK
 70
     0
  9
$CHAMFERA
 40
0.0
  9
$CHAMFERB
 40
0.0
  9
$CHAMFERC
 40
0.0
  9
$CHAMFERD
 40
0.0
  9
$SKPOLY
 70
     0
  9
$TDCREATE
 40
2451876.785052349
  9
$TDUCREATE
 40
2451876.410052349
  9
$TDUPDATE
 40
2455363.672179351
  9
$TDUUPDATE
 40
2455363.297179352
  9
$TDINDWG
 40
1.9077282986
  9
$TDUSRTIMER
 40
1.9077282986
  9
$USRTIMER
 70
     1
  9
$ANGBASE
 50
0.0
  9
$ANGDIR
 70
     0
  9
$PDMODE
 70
    34
  9
$PDSIZE
 40
10.0
  9
$PLINEWID
 40
0.0
  9
$SPLFRAME
 70
     0
  9
$SPLINETYPE
 70
     6
  9
$SPLINESEGS
 70
     8
  9
$HANDSEED
  5
3C25
  9
$SURFTAB1
 70
     6
  9
$SURFTAB2
 70
     6
  9
$SURFTYPE
 70
     6
  9
$SURFU
 70
     6
  9
$SURFV
 70
     6
  9
$UCSBASE
  2

  9
$UCSNAME
  2

  9
$UCSORG
 10
0.0
 20
0.0
 30
0.0
  9
$UCSXDIR
 10
1.0
 20
0.0
 30
0.0
  9
$UCSYDIR
 10
0.0
 20
1.0
 30
0.0
  9
$UCSORTHOREF
  2

  9
$UCSORTHOVIEW
 70
     0
  9
$UCSORGTOP
 10
0.0
 20
0.0
 30
0.0
  9
$UCSORGBOTTOM
 10
0.0
 20
0.0
 30
0.0
  9
$UCSORGLEFT
 10
0.0
 20
0.0
 30
0.0
  9
$UCSORGRIGHT
 10
0.0
 20
0.0
 30
0.0
  9
$UCSORGFRONT
 10
0.0
 20
0.0
 30
0.0
  9
$UCSORGBACK
 10
0.0
 20
0.0
 30
0.0
  9
$PUCSBASE
  2

  9
$PUCSNAME
  2

  9
$PUCSORG
 10
0.0
 20
0.0
 30
0.0
  9
$PUCSXDIR
 10
1.0
 20
0.0
 30
0.0
  9
$PUCSYDIR
 10
0.0
 20
1.0
 30
0.0
  9
$PUCSORTHOREF
  2

  9
$PUCSORTHOVIEW
 70
     0
  9
$PUCSORGTOP
 10
0.0
 20
0.0
 30
0.0
  9
$PUCSORGBOTTOM
 10
0.0
 20
0.0
 30
0.0
  9
$PUCSORGLEFT
 10
0.0
 20
0.0
 30
0.0
  9
$PUCSORGRIGHT
 10
0.0
 20
0.0
 30
0.0
  9
$PUCSORGFRONT
 10
0.0
 20
0.0
 30
0.0
  9
$PUCSORGBACK
 10
0.0
 20
0.0
 30
0.0
  9
$USERI1
 70
     0
  9
$USERI2
 70
     0
  9
$USERI3
 70
     0
  9
$USERI4
 70
     0
  9
$USERI5
 70
     0
  9
$USERR1
 40
0.0
  9
$USERR2
 40
0.0
  9
$USERR3
 40
0.0
  9
$USERR4
 40
0.0
  9
$USERR5
 40
0.0
  9
$WORLDVIEW
 70
     1
  9
$SHADEDGE
 70
     3
  9
$SHADEDIF
 70
    70
  9
$TILEMODE
 70
     1
  9
$MAXACTVP
 70
    16
  9
$PINSBASE
 10
0.0
 20
0.0
 30
0.0
  9
$PLIMCHECK
 70
     0
  9
$PEXTMIN
 10
28.50543971293507
 20
19.81543140396922
 30
-0.0015258207003583
  9
$PEXTMAX
 10
256.6730589841873
 20
178.4103977445717
 30
0.0000000349246037
  9
$PLIMMIN
 10
-5.873748779296875
 20
-5.873749732971191
  9
$PLIMMAX
 10
291.05224609375
 20
204.0995779037475
  9
$UNITMODE
 70
     0
  9
$VISRETAIN
 70
     0
  9
$PLINEGEN
 70
     0
  9
$PSLTSCALE
 70
     0
  9
$TREEDEPTH
 70
  3020
  9
$CMLSTYLE
  2
STANDARD
  9
$CMLJUST
 70
     0
  9
$CMLSCALE
 40
1.0
  9
$PROXYGRAPHICS
 70
     1
  9
$MEASUREMENT
 70
     0
  9
$CELWEIGHT
370
    -1
  9
$ENDCAPS
280
     0
  9
$JOINSTYLE
280
     0
  9
$LWDISPLAY
290
     0
  9
$INSUNITS
 70
     0
  9
$HYPERLINKBASE
  1

  9
$STYLESHEET
  1
monochrome.ctb
  9
$XEDIT
290
     1
  9
$CEPSNTYPE
380
     0
  9
$PSTYLEMODE
290
     1
  9
$FINGERPRINTGUID
  2
{323D9AA9-B963-4FB9-A021-10AE0BCF45CB}
  9
$VERSIONGUID
  2
{4745751F-4695-451A-BA61-7D3C4F9AF924}
  9
$EXTNAMES
290
     1
  9
$PSVPSCALE
 40
0.0
  9
$OLESTARTUP
290
     0
  0
ENDSEC
  0
SECTION
  2
CLASSES
  0
CLASS
  1
IDBUFFER
  2
AcDbIdBuffer
  3
AutoCAD 2000
 90
    32768
280
     0
281
     0
  0
CLASS
  1
LWPOLYLINE
  2
AcDbPolyline
  3
AutoCAD 2000
 90
    32768
280
     0
281
     1
  0
CLASS
  1
ACDBDICTIONARYWDFLT
  2
AcDbDictionaryWithDefault
  3
AutoCAD 2000
 90
        0
280
     0
281
     0
  0
CLASS
  1
ACDBPLACEHOLDER
  2
AcDbPlaceHolder
  3
AutoCAD 2000
 90
        0
280
     0
281
     0
  0
CLASS
  1
LAYOUT
  2
AcDbLayout
  3
AutoCAD 2000
 90
        0
280
     0
281
     0
  0
CLASS
  1
DICTIONARYVAR
  2
AcDbDictionaryVar
  3
AutoCAD 2000
 90
        0
280
     0
281
     0
  0
ENDSEC
  0
SECTION
  2
TABLES
  0
TABLE
  2
VPORT
  5
8
330
0
100
AcDbSymbolTable
 70
     5
  0
VPORT
  5
3C24
330
8
100
AcDbSymbolTableRecord
100
AcDbViewportTableRecord
  2
*Active
 70
     0
 10
0.0
 20
0.0
 11
1.0
 21
1.0
 12
1211.559769246572
 22
1165.373832898322
 13
0.0
 23
0.0
 14
12.5
 24
12.5
 15
50.0
 25
50.0
 16
0.0
 26
0.0
 36
1.0
 17
0.0
 27
0.0
 37
0.0
 40
3718.412201049815
 41
1.724358974358974
 42
50.0
 43
0.0
 44
0.0
 50
0.0
 51
0.0
 71
     0
 72
   500
 73
     1
 74
     0
 75
     1
 76
     1
 77
     0
 78
     0
281
     0
 65
     1
110
0.0
120
0.0
130
0.0
111
1.0
121
0.0
131
0.0
112
0.0
122
1.0
132
0.0
 79
     0
146
0.0
  0
ENDTAB
  0
TABLE
  2
LTYPE
  5
5
330
0
100
AcDbSymbolTable
 70
     9
  0
LTYPE
  5
12
330
5
100
AcDbSymbolTableRecord
100
AcDbLinetypeTableRecord
  2
BYBLOCK
 70
     0
  3

 72
    65
 73
     0
 40
0.0
  0
LTYPE
  5
13
330
5
100
AcDbSymbolTableRecord
100
AcDbLinetypeTableRecord
  2
BYLAYER
 70
     0
  3

 72
    65
 73
     0
 40
0.0
  0
LTYPE
  5
14
330
5
100
AcDbSymbolTableRecord
100
AcDbLinetypeTableRecord
  2
CONTINUOUS
 70
     0
  3
Solid line
 72
    65
 73
     0
 40
0.0
  0
LTYPE
  5
2A
330
5
100
AcDbSymbolTableRecord
100
AcDbLinetypeTableRecord
  2
DASHED
 70
     0
  3
___  ___  ___  ___  ___  ___  ___  ___
 72
    65
 73
     2
 40
5.0
 49
3.0
 74
     0
 49
-2.0
 74
     0
  0
LTYPE
  5
2B
330
5
100
AcDbSymbolTableRecord
100
AcDbLinetypeTableRecord
  2
HIDDEN
 70
     0
  3
__  __  __  __  __  __  __  __  __  __
 72
    65
 73
     2
 40
2.0
 49
1.0
 74
     0
 49
-1.0
 74
     0
  0
LTYPE
  5
2C
330
5
100
AcDbSymbolTableRecord
100
AcDbLinetypeTableRecord
  2
CENTER
 70
     0
  3
_____ _ _____ _ _____ _ _____ _ _____ _ _____
 72
    65
 73
     4
 40
17.0
 49
14.0
 74
     0
 49
-1.0
 74
     0
 49
1.0
 74
     0
 49
-1.0
 74
     0
  0
LTYPE
  5
2D
330
5
100
AcDbSymbolTableRecord
100
AcDbLinetypeTableRecord
  2
PHANTOM
 70
     0
  3
_____ _ _ _____ _ _ _____ _ _ _____ _ _ _____
 72
    65
 73
     6
 40
19.0
 49
14.0
 74
     0
 49
-1.0
 74
     0
 49
1.0
 74
     0
 49
-1.0
 74
     0
 49
1.0
 74
     0
 49
-1.0
 74
     0
  0
LTYPE
  5
2E
330
5
100
AcDbSymbolTableRecord
100
AcDbLinetypeTableRecord
  2
DOT
 70
     0
  3
_ _ _ _ _ _ _ _ _ _ _ _ _ _ _ _ _ _ _ _ _ _ 
 72
    65
 73
     2
 40
1.0
 49
0.5
 74
     0
 49
-0.5
 74
     0
  0
LTYPE
  5
2F
330
5
100
AcDbSymbolTableRecord
100
AcDbLinetypeTableRecord
  2
DASHDOT
 70
     0
  3
__ . __ . __ . __ . __ . __ . __ . __ . __ . __
 72
    65
 73
     4
 40
8.0
 49
5.0
 74
     0
 49
-1.0
 74
     0
 49
1.0
 74
     0
 49
-1.0
 74
     0
  0
LTYPE
  5
30
330
5
100
AcDbSymbolTableRecord
100
AcDbLinetypeTableRecord
  2
DIVIDE
 70
     0
  3
__ . . __ . . __ . . __ . . __ . . __ . . __
 72
    65
 73
     6
 40
10.0
 49
5.0
 74
     0
 49
-1.0
 74
     0
 49
1.0
 74
     0
 49
-1.0
 74
     0
 49
1.0
 74
     0
 49
-1.0
 74
     0
  0
LTYPE
  5
31
330
5
100
AcDbSymbolTableRecord
100
AcDbLinetypeTableRecord
  2
BORDER
 70
     0
  3
__ __ . __ __ . __ __ . __ __ . __ __ . __ __
 72
    65
 73
     6
 40
22.5
 49
5.0
 74
     0
 49
-2.5
 74
     0
 49
5.0
 74
     0
 49
-2.5
 74
     0
 49
5.0
 74
     0
 49
-2.5
 74
     0
  0
ENDTAB
  0
TABLE
  2
LAYER
  5
2
330
0
100
AcDbSymbolTable
 70
    21
  0
LAYER
  5
F
330
2
100
AcDbSymbolTableRecord
100
AcDbLayerTableRecord
  2
0
 70
     0
 62
     7
  6
CONTINUOUS
370
    -3
390
28B8
  0
LAYER
  5
34
330
2
100
AcDbSymbolTableRecord
100
AcDbLayerTableRecord
  2
1
 70
     0
 62
     7
  6
CONTINUOUS
370
    -3
390
28B8
  0
LAYER
  5
35
330
2
100
AcDbSymbolTableRecord
100
AcDbLayerTableRecord
  2
TEN
 70
     1
 62
     8
  6
DASHED
370
    -3
390
28B8
  0
LAYER
  5
36
330
2
100
AcDbSymbolTableRecord
100
AcDbLayerTableRecord
  2
HOJO
 70
     0
 62
     5
  6
CONTINUOUS
370
    -3
390
28B8
  0
LAYER
  5
37
330
2
100
AcDbSymbolTableRecord
100
AcDbLayerTableRecord
  2
SIN-JIS
 70
     0
 62
    -2
  6
CONTINUOUS
370
    -3
390
28B8
  0
LAYER
  5
38
330
2
100
AcDbSymbolTableRecord
100
AcDbLayerTableRecord
  2
KYU-JIS
 70
     0
 62
     3
  6
CONTINUOUS
370
    -3
390
28B8
  0
LAYER
  5
39
330
2
100
AcDbSymbolTableRecord
100
AcDbLayerTableRecord
  2
JIS
 70
     0
 62
     6
  6
CONTINUOUS
370
    -3
390
28B8
  0
LAYER
  5
3A
330
2
100
AcDbSymbolTableRecord
100
AcDbLayerTableRecord
  2
ZOKUSEI
 70
     0
 62
     4
  6
CONTINUOUS
370
    -3
390
28B8
  0
LAYER
  5
3B
330
2
100
AcDbSymbolTableRecord
100
AcDbLayerTableRecord
  2
KUROMARU
 70
     0
 62
     1
  6
CONTINUOUS
370
    -3
390
28B8
  0
LAYER
  5
3C
330
2
100
AcDbSymbolTableRecord
100
AcDbLayerTableRecord
  2
SENBAN
 70
     0
 62
     6
  6
CONTINUOUS
370
    -3
390
28B8
  0
LAYER
  5
3D
330
2
100
AcDbSymbolTableRecord
100
AcDbLayerTableRecord
  2
GAIKEI1
 70
     0
 62
     2
  6
CONTINUOUS
370
    -3
390
28B8
  0
LAYER
  5
3E
330
2
100
AcDbSymbolTableRecord
100
AcDbLayerTableRecord
  2
GAIKEI2
 70
     0
 62
     3
  6
CONTINUOUS
370
    -3
390
28B8
  0
LAYER
  5
3F
330
2
100
AcDbSymbolTableRecord
100
AcDbLayerTableRecord
  2
GAIKEI3
 70
     0
 62
     4
  6
CONTINUOUS
370
    -3
390
28B8
  0
LAYER
  5
40
330
2
100
AcDbSymbolTableRecord
100
AcDbLayerTableRecord
  2
WAKU
 70
     0
 62
     3
  6
CONTINUOUS
370
    -3
390
28B8
  0
LAYER
  5
41
330
2
100
AcDbSymbolTableRecord
100
AcDbLayerTableRecord
  2
MEMORI
 70
     0
 62
     7
  6
CONTINUOUS
370
    -3
390
28B8
  0
LAYER
  5
55C
330
2
100
AcDbSymbolTableRecord
100
AcDbLayerTableRecord
  2
DEFPOINTS
 70
     0
 62
     7
  6
CONTINUOUS
290
     0
370
    -3
390
28B8
  0
LAYER
  5
22ED
330
2
100
AcDbSymbolTableRecord
100
AcDbLayerTableRecord
  2
C-CIRCUIT
 70
     0
 62
     7
  6
CONTINUOUS
370
    -3
390
28B8
  0
LAYER
  5
235E
330
2
100
AcDbSymbolTableRecord
100
AcDbLayerTableRecord
  2
LAY-7
 70
     0
 62
     7
  6
CONTINUOUS
370
    -3
390
28B8
  0
LAYER
  5
27EA
330
2
100
AcDbSymbolTableRecord
100
AcDbLayerTableRecord
  2
製造図
 70
     1
 62
   130
  6
CONTINUOUS
370
    -3
390
28B8
  0
LAYER
  5
2824
330
2
100
AcDbSymbolTableRecord
100
AcDbLayerTableRecord
  2
製造
 70
     0
 62
   130
  6
CONTINUOUS
370
    -3
390
28B8
  0
LAYER
  5
3669
330
2
100
AcDbSymbolTableRecord
100
AcDbLayerTableRecord
  2
WAKU-MOJI
 70
     0
 62
     7
  6
CONTINUOUS
370
    -3
390
28B8
  0
ENDTAB
  0
TABLE
  2
STYLE
  5
3
330
0
100
AcDbSymbolTable
 70
    16
  0
STYLE
  5
10
330
3
100
AcDbSymbolTableRecord
100
AcDbTextStyleTableRecord
  2
STANDARD
 70
     0
 40
0.0
 41
0.8
 50
0.0
 71
     0
 42
30.0
  3
monotxt
  4
EXTFONT.SHX
  0
STYLE
  5
1C
330
3
100
AcDbSymbolTableRecord
100
AcDbTextStyleTableRecord
  2
M4
 70
     0
 40
0.0
 41
0.4
 50
0.0
 71
     0
 42
30.0
  3
monotxt
  4
EXTFONT.SHX
  0
STYLE
  5
1D
330
3
100
AcDbSymbolTableRecord
100
AcDbTextStyleTableRecord
  2
M5
 70
     0
 40
0.0
 41
0.5
 50
0.0
 71
     0
 42
40.0
  3
monotxt
  4
EXTFONT.SHX
  0
STYLE
  5
1E
330
3
100
AcDbSymbolTableRecord
100
AcDbTextStyleTableRecord
  2
M6
 70
     0
 40
0.0
 41
0.6
 50
0.0
 71
     0
 42
30.0
  3
monotxt
  4
EXTFONT.SHX
  0
STYLE
  5
1F
330
3
100
AcDbSymbolTableRecord
100
AcDbTextStyleTableRecord
  2
M7
 70
     0
 40
0.0
 41
0.7
 50
0.0
 71
     0
 42
25.0
  3
MONOTXT
  4
EXTFONT.SHX
  0
STYLE
  5
20
330
3
100
AcDbSymbolTableRecord
100
AcDbTextStyleTableRecord
  2
M8
 70
     0
 40
0.0
 41
0.8
 50
0.0
 71
     0
 42
30.0
  3
ROMANS
  4
EXTFONT
  0
STYLE
  5
21
330
3
100
AcDbSymbolTableRecord
100
AcDbTextStyleTableRecord
  2
M9
 70
     0
 40
0.0
 41
0.9
 50
0.0
 71
     0
 42
30.0
  3
monotxt
  4
EXTFONT.SHX
  0
STYLE
  5
22
330
3
100
AcDbSymbolTableRecord
100
AcDbTextStyleTableRecord
  2
M0
 70
     0
 40
0.0
 41
1.0
 50
0.0
 71
     0
 42
30.0
  3
monotxt
  4
EXTFONT.SHX
  0
STYLE
  5
23
330
3
100
AcDbSymbolTableRecord
100
AcDbTextStyleTableRecord
  2
TM5
 70
     4
 40
0.0
 41
0.5
 50
0.0
 71
     0
 42
30.0
  3
monotxt
  4
EXTFONT.SHX
  0
STYLE
  5
24
330
3
100
AcDbSymbolTableRecord
100
AcDbTextStyleTableRecord
  2
TM8
 70
     4
 40
0.0
 41
0.8
 50
0.0
 71
     0
 42
30.0
  3
monotxt
  4
EXTFONT.SHX
  0
STYLE
  5
25
330
3
100
AcDbSymbolTableRecord
100
AcDbTextStyleTableRecord
  2
TM0
 70
     4
 40
0.0
 41
1.0
 50
0.0
 71
     0
 42
30.0
  3
monotxt
  4
EXTFONT.SHX
  0
STYLE
  5
26
330
3
100
AcDbSymbolTableRecord
100
AcDbTextStyleTableRecord
  2
TM4
 70
     4
 40
0.0
 41
0.4
 50
0.0
 71
     0
 42
60.0
  3
MONOTXT
  4
EXTFONT.SHX
  0
STYLE
  5
27
330
3
100
AcDbSymbolTableRecord
100
AcDbTextStyleTableRecord
  2
TM6
 70
     4
 40
0.0
 41
0.6
 50
0.0
 71
     0
 42
60.0
  3
MONOTXT
  4
EXTFONT.SHX
  0
STYLE
  5
28
330
3
100
AcDbSymbolTableRecord
100
AcDbTextStyleTableRecord
  2
TM7
 70
     4
 40
0.0
 41
0.7
 50
0.0
 71
     0
 42
20.0
  3
MONOTXT
  4
EXTFONT.SHX
  0
STYLE
  5
29
330
3
100
AcDbSymbolTableRecord
100
AcDbTextStyleTableRecord
  2
TM9
 70
     4
 40
0.0
 41
0.8
 50
0.0
 71
     0
 42
60.0
  3
MONOTXT
  4
EXTFONT.SHX
  0
STYLE
  5
235F
330
3
100
AcDbSymbolTableRecord
100
AcDbTextStyleTableRecord
  2
EXCADVERT
 70
     4
 40
0.0
 41
1.0
 50
0.0
 71
     0
 42
0.286885
  3
monotxt
  4
bigfont
  0
ENDTAB
  0
TABLE
  2
VIEW
  5
6
330
0
100
AcDbSymbolTable
 70
     0
  0
ENDTAB
  0
TABLE
  2
UCS
  5
7
330
0
100
AcDbSymbolTable
 70
     0
  0
ENDTAB
  0
TABLE
  2
APPID
  5
9
330
0
100
AcDbSymbolTable
 70
     2
  0
APPID
  5
11
330
9
100
AcDbSymbolTableRecord
100
AcDbRegAppTableRecord
  2
ACAD
 70
     0
  0
APPID
  5
1FCE
330
9
100
AcDbSymbolTableRecord
100
AcDbRegAppTableRecord
  2
UBOX
 70
     0
  0
ENDTAB
  0
TABLE
  2
DIMSTYLE
  5
A
330
0
100
AcDbSymbolTable
 70
     2
100
AcDbDimStyleTable
 71
     1
340
46
  0
DIMSTYLE
105
46
102
{ACAD_REACTORS
330
27F9
102
}
330
A
100
AcDbSymbolTableRecord
100
AcDbDimStyleTableRecord
  2
STANDARD
 70
     0
 40
10.0
 41
0.8
 42
1.0
 43
5.0
 44
1.5
 73
     0
 74
     0
 77
     1
140
3.5
141
1.0
146
0.8571428571428571
147
1.0
172
     1
176
     1
177
     1
178
     1
271
     0
272
     0
340
10
  0
DIMSTYLE
105
218D
330
A
100
AcDbSymbolTableRecord
100
AcDbDimStyleTableRecord
  2
IKE
 70
     0
 40
10.0
 41
0.75
 42
1.0
 43
5.0
 44
2.0
 73
     0
 74
     0
 77
     1
 78
     8
140
2.5
141
1.0
146
0.8571428571428571
147
1.0
172
     1
173
     1
176
     7
177
     7
178
     7
271
     0
272
     0
340
10
341
2055
342
2055
343
2055
344
2055
  0
ENDTAB
  0
TABLE
  2
BLOCK_RECORD
  5
1
330
0
100
AcDbSymbolTable
 70
    13
  0
BLOCK_RECORD
  5
18
330
1
100
AcDbSymbolTableRecord
100
AcDbBlockTableRecord
  2
*MODEL_SPACE
340
28BB
  0
BLOCK_RECORD
  5
15
330
1
100
AcDbSymbolTableRecord
100
AcDbBlockTableRecord
  2
*PAPER_SPACE
340
28BC
  0
BLOCK_RECORD
  5
2055
330
1
100
AcDbSymbolTableRecord
100
AcDbBlockTableRecord
  2
UPARO1
340
0
102
{BLKREFS
331
3BEA
331
3BEB
102
}
  0
BLOCK_RECORD
  5
218E
330
1
100
AcDbSymbolTableRecord
100
AcDbBlockTableRecord
  2
AF06
340
0
  0
BLOCK_RECORD
  5
21B8
330
1
100
AcDbSymbolTableRecord
100
AcDbBlockTableRecord
  2
AF03
340
0
  0
BLOCK_RECORD
  5
21C2
330
1
100
AcDbSymbolTableRecord
100
AcDbBlockTableRecord
  2
T6
340
0
  0
BLOCK_RECORD
  5
21C8
330
1
100
AcDbSymbolTableRecord
100
AcDbBlockTableRecord
  2
C04
340
0
  0
BLOCK_RECORD
  5
21CF
330
1
100
AcDbSymbolTableRecord
100
AcDbBlockTableRecord
  2
AD07
340
0
  0
BLOCK_RECORD
  5
2209
330
1
100
AcDbSymbolTableRecord
100
AcDbBlockTableRecord
  2
AF08
340
0
  0
BLOCK_RECORD
  5
2540
330
1
100
AcDbSymbolTableRecord
100
AcDbBlockTableRecord
  2
AM01
340
0
  0
BLOCK_RECORD
  5
2547
330
1
100
AcDbSymbolTableRecord
100
AcDbBlockTableRecord
  2
AL01
340
0
  0
BLOCK_RECORD
  5
272A
330
1
100
AcDbSymbolTableRecord
100
AcDbBlockTableRecord
  2
ET61
340
0
  0
BLOCK_RECORD
  5
27EC
330
1
100
AcDbSymbolTableRecord
100
AcDbBlockTableRecord
  2
*D10
340
0
  0
BLOCK_RECORD
  5
2825
330
1
100
AcDbSymbolTableRecord
100
AcDbBlockTableRecord
  2
SEI
340
0
102
{BLKREFS
331
284F
102
}
  0
BLOCK_RECORD
  5
34E1
330
1
100
AcDbSymbolTableRecord
100
AcDbBlockTableRecord
  2
A$C0B1A7312
340
0
  0
ENDTAB
  0
ENDSEC
  0
SECTION
  2
BLOCKS
  0
BLOCK
  5
44
330
18
100
AcDbEntity
  8
0
100
AcDbBlockBegin
  2
*MODEL_SPACE
 70
     0
 10
0.0
 20
0.0
 30
0.0
  3
*MODEL_SPACE
  1

  0
ENDBLK
  5
45
330
18
100
AcDbEntity
  8
0
100
AcDbBlockEnd
  0
BLOCK
  5
42
330
15
100
AcDbEntity
 67
     1
  8
0
100
AcDbBlockBegin
  2
*PAPER_SPACE
 70
     0
 10
0.0
 20
0.0
 30
0.0
  3
*PAPER_SPACE
  1

  0
ENDBLK
  5
43
330
15
100
AcDbEntity
 67
     1
  8
0
100
AcDbBlockEnd
  0
BLOCK
  5
2058
330
2055
100
AcDbEntity
  8
0
100
AcDbBlockBegin
  2
UPARO1
 70
     0
 10
0.0
 20
0.0
 30
0.0
  3
UPARO1
  1

  0
SOLID
  5
2056
330
2055
100
AcDbEntity
  8
0
  6
ByBlock
 62
     0
100
AcDbTrace
 10
-2.5
 20
-0.4166666666665151
 30
0.0
 11
-2.5
 21
0.4166666666665151
 31
0.0
 12
0.0
 22
0.0
 32
0.0
 13
0.0
 23
0.0
 33
0.0
  0
LINE
  5
2057
330
2055
100
AcDbEntity
  8
0
  6
ByBlock
 62
     0
100
AcDbLine
 10
-2.5
 20
0.0
 30
0.0
 11
-5.0
 21
0.0
 31
0.0
  0
ENDBLK
  5
2059
330
2055
100
AcDbEntity
  8
0
100
AcDbBlockEnd
  0
BLOCK
  5
2193
330
218E
100
AcDbEntity
  8
0
100
AcDbBlockBegin
  2
AF06
 70
     0
 10
0.0
 20
0.0
 30
0.0
  3
AF06
  1

  0
CIRCLE
  5
218F
330
218E
100
AcDbEntity
  8
GAIKEI2
  6
ByBlock
 62
     2
100
AcDbCircle
 10
-8.5
 20
0.0000000000002274
 30
0.0
 40
2.5
  0
CIRCLE
  5
2190
330
218E
100
AcDbEntity
  8
GAIKEI2
  6
ByBlock
 62
     2
100
AcDbCircle
 10
8.5
 20
0.0000000000002274
 30
0.0
 40
2.5
  0
LWPOLYLINE
  5
2191
330
218E
100
AcDbEntity
  8
GAIKEI2
  6
ByBlock
 62
     2
100
AcDbPolyline
 90
        4
 70
     1
 43
0.0
 10
-19.5
 20
7.0
 10
19.5
 20
7.0
 10
19.5
 20
-7.0
 10
-19.5
 20
-7.0
  0
LWPOLYLINE
  5
2192
330
218E
100
AcDbEntity
  8
GAIKEI2
  6
ByBlock
 62
     2
100
AcDbPolyline
 90
        4
 70
     1
 43
0.0
 10
-22.5
 20
10.0
 10
22.5
 20
10.0
 10
22.5
 20
-10.0
 10
-22.5
 20
-10.0
  0
ENDBLK
  5
2194
330
218E
100
AcDbEntity
  8
0
100
AcDbBlockEnd
  0
BLOCK
  5
21BD
330
21B8
100
AcDbEntity
  8
0
100
AcDbBlockBegin
  2
AF03
 70
     2
 10
0.0
 20
0.0
 30
0.0
  3
AF03
  1

  0
ATTDEF
  5
21B9
330
21B8
100
AcDbEntity
  8
ZOKUSEI
  6
ByBlock
100
AcDbText
 10
-23.33333333333333
 20
-12.5
 30
0.0
 40
25.0
  1
NP0
 41
0.7
  7
M7
 72
     1
 11
0.0
 21
0.0
 31
0.0
100
AcDbAttributeDefinition
  3

  2
KIGO
 70
     8
 74
     2
  0
LWPOLYLINE
  5
21BA
330
21B8
100
AcDbEntity
  8
GAIKEI2
  6
ByBlock
 62
     2
100
AcDbPolyline
 90
        4
 70
     1
 43
0.0
 10
-62.5
 20
12.5
 10
62.5
 20
12.5
 10
62.5
 20
-12.5
 10
-62.5
 20
-12.5
  0
CIRCLE
  5
21BB
330
21B8
100
AcDbEntity
  8
GAIKEI2
  6
ByBlock
 62
     2
100
AcDbCircle
 10
-59.0
 20
0.0
 30
0.0
 40
2.0
  0
CIRCLE
  5
21BC
330
21B8
100
AcDbEntity
  8
GAIKEI2
  6
ByBlock
 62
     2
100
AcDbCircle
 10
59.0
 20
0.0
 30
0.0
 40
2.0
  0
ENDBLK
  5
21BE
330
21B8
100
AcDbEntity
  8
0
100
AcDbBlockEnd
  0
BLOCK
  5
21C5
330
21C2
100
AcDbEntity
  8
0
100
AcDbBlockBegin
  2
T6
 70
     0
 10
0.0
 20
0.0
 30
0.0
  3
T6
  1

  0
LWPOLYLINE
  5
21C3
330
21C2
100
AcDbEntity
  8
1
  6
DOT
100
AcDbPolyline
 90
        4
 70
     1
 43
0.0
 10
31.5
 20
8.0
 10
31.5
 20
-8.0
 10
-31.5
 20
-8.0
 10
-31.5
 20
8.0
  0
TEXT
  5
21C4
330
21C2
100
AcDbEntity
  8
1
  6
Continuous
100
AcDbText
 10
44.16666666666666
 20
-12.5
 30
0.0
 40
25.0
  1
A
 41
0.7
  7
M7
 72
     1
 11
50.0
 21
0.0
 31
0.0
100
AcDbText
 73
     2
  0
ENDBLK
  5
21C6
330
21C2
100
AcDbEntity
  8
0
100
AcDbBlockEnd
  0
BLOCK
  5
21CC
330
21C8
100
AcDbEntity
  8
0
100
AcDbBlockBegin
  2
C04
 70
     0
 10
0.0
 20
0.0
 30
0.0
  3
C04
  1

  0
TEXT
  5
21C9
330
21C8
100
AcDbEntity
  8
GAIKEI2
  6
ByBlock
 62
     7
100
AcDbText
 10
-29.16666666666666
 20
-12.5
 30
0.0
 40
25.0
  1
社銘板
 41
0.7
  7
M7
 72
     1
 11
0.0
 21
0.0
 31
0.0
100
AcDbText
 73
     2
  0
CIRCLE
  5
21CA
330
21C8
100
AcDbEntity
  8
GAIKEI2
  6
ByBlock
 62
     3
100
AcDbCircle
 10
0.0
 20
0.0
 30
0.0
 40
1.0
  0
LWPOLYLINE
  5
21CB
330
21C8
100
AcDbEntity
  8
GAIKEI2
  6
HIDDEN
 62
     3
100
AcDbPolyline
 90
        4
 70
     1
 43
0.0
 10
40.0
 20
25.0
 10
-40.0
 20
25.0
 10
-40.0
 20
-25.0
 10
40.0
 20
-25.0
  0
ENDBLK
  5
21CD
330
21C8
100
AcDbEntity
  8
0
100
AcDbBlockEnd
  0
BLOCK
  5
2201
330
21CF
100
AcDbEntity
  8
0
100
AcDbBlockBegin
  2
AD07
 70
     0
 10
0.0
 20
0.0
 30
0.0
  3
AD07
  1

  0
ARC
  5
21D0
330
21CF
100
AcDbEntity
  8
1
  6
Continuous
 62
     7
100
AcDbCircle
 10
-1955.111875492654
 20
-0.2985864999997716
 30
0.0
 40
1969.111875492654
100
AcDbArc
 50
358.4450747920842
 51
1.554925207915832
  0
ARC
  5
21D1
330
21CF
100
AcDbEntity
  8
1
  6
Continuous
 62
     7
100
AcDbCircle
 10
1955.111875492642
 20
-0.2985865000002832
 30
0.0
 40
1969.111875492641
100
AcDbArc
 50
178.4450747920841
 51
181.5549252079159
  0
ARC
  5
21D2
330
21CF
100
AcDbEntity
  8
1
  6
Continuous
 62
     7
100
AcDbCircle
 10
1955.04004459611
 20
-0.2985865000002832
 30
0.0
 40
1971.04004459611
100
AcDbArc
 50
178.4453172315284
 51
181.5546827684715
  0
ARC
  5
21D3
330
21CF
100
AcDbEntity
  8
1
  6
Continuous
 62
     7
100
AcDbCircle
 10
-1955.040044596122
 20
-0.2985864999997716
 30
0.0
 40
1971.040044596122
100
AcDbArc
 50
358.4453172315284
 51
1.554682768471508
  0
LINE
  5
21D4
330
21CF
100
AcDbEntity
  8
1
  6
Continuous
 62
     7
100
AcDbLine
 10
-10.0
 20
36.20141350000003
 30
0.0
 11
-10.0
 21
27.20141350000003
 31
0.0
  0
LINE
  5
21D5
330
21CF
100
AcDbEntity
  8
1
  6
Continuous
 62
     7
100
AcDbLine
 10
10.0
 20
27.20141350000003
 30
0.0
 11
10.0
 21
36.20141350000003
 31
0.0
  0
LINE
  5
21D6
330
21CF
100
AcDbEntity
  8
1
  6
Continuous
 62
     7
100
AcDbLine
 10
9.0
 20
-43.79858649999997
 30
0.0
 11
-9.0
 21
-43.79858649999997
 31
0.0
  0
ARC
  5
21D7
330
21CF
100
AcDbEntity
  8
1
  6
Continuous
 62
     7
100
AcDbCircle
 10
0.0
 20
341.2014135
 30
0.0
 40
398.0
100
AcDbArc
 50
268.509323
 51
271.490677
  0
ARC
  5
21D8
330
21CF
100
AcDbEntity
  8
1
  6
Continuous
 62
     7
100
AcDbCircle
 10
0.0
 20
341.2014135
 30
0.0
 40
400.0
100
AcDbArc
 50
268.509323
 51
271.490677
  0
CIRCLE
  5
21D9
330
21CF
100
AcDbEntity
  8
1
  6
Continuous
 62
     7
100
AcDbCircle
 10
0.0
 20
-31.79858649999997
 30
0.0
 40
7.0
  0
LINE
  5
21DA
330
21CF
100
AcDbEntity
  8
1
  6
Continuous
 62
     7
100
AcDbLine
 10
9.0
 20
22.20141350000003
 30
0.0
 11
-9.0
 21
22.20141350000003
 31
0.0
  0
LINE
  5
21DB
330
21CF
100
AcDbEntity
  8
1
  6
Continuous
 62
     7
100
AcDbLine
 10
9.0
 20
26.20141350000003
 30
0.0
 11
-9.0
 21
26.20141350000003
 31
0.0
  0
LINE
  5
21DC
330
21CF
100
AcDbEntity
  8
1
  6
Continuous
 62
     7
100
AcDbLine
 10
-1.0
 20
-35.29858649999997
 30
0.0
 11
-1.0
 21
-28.29858649999997
 31
0.0
  0
LINE
  5
21DD
330
21CF
100
AcDbEntity
  8
1
  6
Continuous
 62
     7
100
AcDbLine
 10
1.0
 20
-28.29858649999997
 30
0.0
 11
1.0
 21
-35.29858649999997
 31
0.0
  0
LINE
  5
21DE
330
21CF
100
AcDbEntity
  8
1
  6
Continuous
 62
     7
100
AcDbLine
 10
-10.0
 20
-37.79858649999997
 30
0.0
 11
-10.0
 21
21.20141350000003
 31
0.0
  0
ARC
  5
21DF
330
21CF
100
AcDbEntity
  8
1
  6
Continuous
 62
     7
100
AcDbCircle
 10
-9.0
 20
-42.79858649999996
 30
0.0
 40
1.0
100
AcDbArc
 50
180.0
 51
270.0
  0
LINE
  5
21E0
330
21CF
100
AcDbEntity
  8
1
  6
Continuous
 62
     7
100
AcDbLine
 10
-10.0
 20
-42.79858649999996
 30
0.0
 11
-10.0
 21
-37.79858649999997
 31
0.0
  0
ARC
  5
21E1
330
21CF
100
AcDbEntity
  8
1
  6
Continuous
 62
     7
100
AcDbCircle
 10
-10.275643
 20
-53.66490649999999
 30
0.0
 40
3.0
100
AcDbArc
 50
181.260156
 51
268.509323
  0
ARC
  5
21E2
330
21CF
100
AcDbEntity
  8
1
  6
Continuous
 62
     7
100
AcDbCircle
 10
-10.275643
 20
-53.66490649999999
 30
0.0
 40
5.0
100
AcDbArc
 50
181.260156
 51
268.509323
  0
LINE
  5
21E3
330
21CF
100
AcDbEntity
  8
1
  6
Continuous
 62
     7
100
AcDbLine
 10
1.0
 20
-35.29858649999997
 30
0.0
 11
-1.0
 21
-35.29858649999997
 31
0.0
  0
LINE
  5
21E4
330
21CF
100
AcDbEntity
  8
1
  6
Continuous
 62
     7
100
AcDbLine
 10
-1.0
 20
-28.29858649999997
 30
0.0
 11
1.0
 21
-28.29858649999997
 31
0.0
  0
LINE
  5
21E5
330
21CF
100
AcDbEntity
  8
1
  6
Continuous
 62
     7
100
AcDbLine
 10
-10.0
 20
21.20141350000003
 30
0.0
 11
-10.0
 21
11.42315950000002
 31
0.0
  0
ARC
  5
21E6
330
21CF
100
AcDbEntity
  8
1
  6
Continuous
 62
     7
100
AcDbCircle
 10
-9.0
 20
27.20141350000003
 30
0.0
 40
1.0
100
AcDbArc
 50
180.0
 51
270.0
  0
ARC
  5
21E7
330
21CF
100
AcDbEntity
  8
1
  6
Continuous
 62
     7
100
AcDbCircle
 10
-9.0
 20
21.20141350000003
 30
0.0
 40
1.0
100
AcDbArc
 50
90.0
 51
180.0
  0
LINE
  5
21E8
330
21CF
100
AcDbEntity
  8
1
  6
Continuous
 62
     7
100
AcDbLine
 10
10.0
 20
21.20141350000003
 30
0.0
 11
10.0
 21
-37.79858649999997
 31
0.0
  0
LINE
  5
21E9
330
21CF
100
AcDbEntity
  8
1
  6
Continuous
 62
     7
100
AcDbLine
 10
10.0
 20
-37.79858649999997
 30
0.0
 11
10.0
 21
-42.79858649999996
 31
0.0
  0
ARC
  5
21EA
330
21CF
100
AcDbEntity
  8
1
  6
Continuous
 62
     7
100
AcDbCircle
 10
9.0
 20
-42.79858649999996
 30
0.0
 40
1.0
100
AcDbArc
 50
270.0
 51
0.0
  0
ARC
  5
21EB
330
21CF
100
AcDbEntity
  8
1
  6
Continuous
 62
     7
100
AcDbCircle
 10
10.275643
 20
-53.66490649999999
 30
0.0
 40
3.0
100
AcDbArc
 50
271.490677
 51
358.739844
  0
ARC
  5
21EC
330
21CF
100
AcDbEntity
  8
1
  6
Continuous
 62
     7
100
AcDbCircle
 10
10.275643
 20
-53.66490649999999
 30
0.0
 40
5.0
100
AcDbArc
 50
271.490677
 51
358.739844
  0
LINE
  5
21ED
330
21CF
100
AcDbEntity
  8
1
  6
Continuous
 62
     7
100
AcDbLine
 10
10.0
 20
18.97320650000003
 30
0.0
 11
10.0
 21
21.20141350000003
 31
0.0
  0
ARC
  5
21EE
330
21CF
100
AcDbEntity
  8
1
  6
Continuous
 62
     7
100
AcDbCircle
 10
9.0
 20
27.20141350000003
 30
0.0
 40
1.0
100
AcDbArc
 50
270.0
 51
0.0
  0
ARC
  5
21EF
330
21CF
100
AcDbEntity
  8
1
  6
Continuous
 62
     7
100
AcDbCircle
 10
9.0
 20
21.20141350000003
 30
0.0
 40
1.0
100
AcDbArc
 50
0.0
 51
90.0
  0
ARC
  5
21F0
330
21CF
100
AcDbEntity
  8
1
  6
Continuous
 62
     7
100
AcDbCircle
 10
0.0
 20
-341.7985864999999
 30
0.0
 40
400.0
100
AcDbArc
 50
88.509323
 51
91.49067700000001
  0
ARC
  5
21F1
330
21CF
100
AcDbEntity
  8
1
  6
Continuous
 62
     7
100
AcDbCircle
 10
0.0
 20
-341.7985864999999
 30
0.0
 40
398.0
100
AcDbArc
 50
88.509323
 51
91.49067700000001
  0
LINE
  5
21F2
330
21CF
100
AcDbEntity
  8
1
  6
Continuous
 62
     7
100
AcDbLine
 10
-6.0
 20
29.20141350000003
 30
0.0
 11
6.0
 21
29.20141350000003
 31
0.0
  0
ARC
  5
21F3
330
21CF
100
AcDbEntity
  8
1
  6
Continuous
 62
     7
100
AcDbCircle
 10
2.0
 20
36.20141350000003
 30
0.0
 40
5.0
100
AcDbArc
 50
0.0
 51
90.0
  0
ARC
  5
21F4
330
21CF
100
AcDbEntity
  8
1
  6
Continuous
 62
     7
100
AcDbCircle
 10
2.0
 20
36.20141350000003
 30
0.0
 40
8.0
100
AcDbArc
 50
0.0
 51
90.0
  0
ARC
  5
21F5
330
21CF
100
AcDbEntity
  8
1
  6
Continuous
 62
     7
100
AcDbCircle
 10
-10.275643
 20
53.0677345
 30
0.0
 40
5.0
100
AcDbArc
 50
91.49067700000001
 51
178.739844
  0
ARC
  5
21F6
330
21CF
100
AcDbEntity
  8
1
  6
Continuous
 62
     7
100
AcDbCircle
 10
-10.275643
 20
53.0677345
 30
0.0
 40
3.0
100
AcDbArc
 50
91.49067700000001
 51
178.739844
  0
LINE
  5
21F7
330
21CF
100
AcDbEntity
  8
1
  6
Continuous
 62
     7
100
AcDbLine
 10
2.0
 20
41.20141350000003
 30
0.0
 11
-2.0
 21
41.20141350000003
 31
0.0
  0
LINE
  5
21F8
330
21CF
100
AcDbEntity
  8
1
  6
Continuous
 62
     7
100
AcDbLine
 10
-7.0
 20
36.20141350000003
 30
0.0
 11
-7.0
 21
30.20141350000002
 31
0.0
  0
ARC
  5
21F9
330
21CF
100
AcDbEntity
  8
1
  6
Continuous
 62
     7
100
AcDbCircle
 10
-2.0
 20
36.20141350000003
 30
0.0
 40
5.0
100
AcDbArc
 50
90.0
 51
180.0
  0
ARC
  5
21FA
330
21CF
100
AcDbEntity
  8
1
  6
Continuous
 62
     7
100
AcDbCircle
 10
-6.0
 20
30.20141350000002
 30
0.0
 40
1.0
100
AcDbArc
 50
180.0
 51
270.0
  0
LINE
  5
21FB
330
21CF
100
AcDbEntity
  8
1
  6
Continuous
 62
     7
100
AcDbLine
 10
2.0
 20
44.20141350000003
 30
0.0
 11
-2.0
 21
44.20141350000003
 31
0.0
  0
ARC
  5
21FC
330
21CF
100
AcDbEntity
  8
1
  6
Continuous
 62
     7
100
AcDbCircle
 10
-2.0
 20
36.20141350000003
 30
0.0
 40
8.0
100
AcDbArc
 50
90.0
 51
180.0
  0
ARC
  5
21FD
330
21CF
100
AcDbEntity
  8
1
  6
Continuous
 62
     7
100
AcDbCircle
 10
10.275643
 20
53.0677345
 30
0.0
 40
5.0
100
AcDbArc
 50
1.260156
 51
88.509323
  0
ARC
  5
21FE
330
21CF
100
AcDbEntity
  8
1
  6
Continuous
 62
     7
100
AcDbCircle
 10
10.275643
 20
53.0677345
 30
0.0
 40
3.0
100
AcDbArc
 50
1.260156
 51
88.509323
  0
LINE
  5
21FF
330
21CF
100
AcDbEntity
  8
1
  6
Continuous
 62
     7
100
AcDbLine
 10
7.0
 20
30.20141350000002
 30
0.0
 11
7.0
 21
36.20141350000003
 31
0.0
  0
ARC
  5
2200
330
21CF
100
AcDbEntity
  8
1
  6
Continuous
 62
     7
100
AcDbCircle
 10
6.0
 20
30.20141350000002
 30
0.0
 40
1.0
100
AcDbArc
 50
270.0
 51
0.0
  0
ENDBLK
  5
2202
330
21CF
100
AcDbEntity
  8
0
100
AcDbBlockEnd
  0
BLOCK
  5
2211
330
2209
100
AcDbEntity
  8
0
100
AcDbBlockBegin
  2
AF08
 70
     0
 10
0.0
 20
0.0
 30
0.0
  3
AF08
  1

  0
TEXT
  5
220A
330
2209
100
AcDbEntity
  8
GAIKEI2
  6
ByBlock
 62
     7
100
AcDbText
 10
-40.25000000000001
 20
17.5
 30
0.0
 40
25.0
  1
図面入れ
 41
0.7
  7
M7
 72
     1
 11
0.0
 21
30.0
 31
0.0
100
AcDbText
 73
     2
  0
TEXT
  5
220B
330
2209
100
AcDbEntity
  8
GAIKEI2
  6
ByBlock
 62
     7
100
AcDbText
 10
-50.0
 20
-12.5
 30
0.0
 40
25.0
  1
120x150
 41
0.6
  7
M6
 72
     1
 11
0.0
 21
0.0
 31
0.0
100
AcDbText
 73
     2
  0
TEXT
  5
220C
330
2209
100
AcDbEntity
  8
GAIKEI2
  6
ByBlock
 62
     7
100
AcDbText
 10
-5.0
 20
-42.5
 30
0.0
 40
25.0
  1
x10
 41
0.6
  7
M6
 72
     4
 11
15.0
 21
-30.0
 31
0.0
100
AcDbText
  0
LINE
  5
220D
330
2209
100
AcDbEntity
  8
GAIKEI2
  6
HIDDEN
 62
     3
100
AcDbLine
 10
-60.0
 20
-75.0
 30
0.0
 11
60.0
 21
-75.0
 31
0.0
  0
LINE
  5
220E
330
2209
100
AcDbEntity
  8
GAIKEI2
  6
HIDDEN
 62
     3
100
AcDbLine
 10
-60.0
 20
75.0
 30
0.0
 11
-60.0
 21
-75.0
 31
0.0
  0
LINE
  5
220F
330
2209
100
AcDbEntity
  8
GAIKEI2
  6
HIDDEN
 62
     3
100
AcDbLine
 10
60.0
 20
75.0
 30
0.0
 11
-60.0
 21
75.0
 31
0.0
  0
LINE
  5
2210
330
2209
100
AcDbEntity
  8
GAIKEI2
  6
HIDDEN
 62
     3
100
AcDbLine
 10
60.0
 20
-75.0
 30
0.0
 11
60.0
 21
75.0
 31
0.0
  0
ENDBLK
  5
2212
330
2209
100
AcDbEntity
  8
0
100
AcDbBlockEnd
  0
BLOCK
  5
2544
330
2540
100
AcDbEntity
  8
0
100
AcDbBlockBegin
  2
AM01
 70
     0
 10
0.0
 20
0.0
 30
0.0
  3
AM01
  1

  0
LINE
  5
2541
330
2540
100
AcDbEntity
  8
JIS
  6
ByBlock
 62
     7
100
AcDbLine
 10
0.0
 20
40.0
 30
0.0
 11
0.0
 21
0.0
 31
0.0
  0
CIRCLE
  5
2542
330
2540
100
AcDbEntity
  8
JIS
  6
Continuous
 62
     7
100
AcDbCircle
 10
0.0
 20
49.99999999999909
 30
0.0
 40
5.0
  0
CIRCLE
  5
2543
330
2540
100
AcDbEntity
  8
JIS
  6
Continuous
 62
     7
100
AcDbCircle
 10
0.0
 20
49.99999999999909
 30
0.0
 40
10.0
  0
ENDBLK
  5
2545
330
2540
100
AcDbEntity
  8
0
100
AcDbBlockEnd
  0
BLOCK
  5
254B
330
2547
100
AcDbEntity
  8
0
100
AcDbBlockBegin
  2
AL01
 70
     0
 10
0.0
 20
0.0
 30
0.0
  3
AL01
  1

  0
CIRCLE
  5
2548
330
2547
100
AcDbEntity
  8
JIS
  6
Continuous
 62
     7
100
AcDbCircle
 10
0.0000000000006821
 20
-49.99999999999864
 30
0.0
 40
10.0
  0
CIRCLE
  5
2549
330
2547
100
AcDbEntity
  8
JIS
  6
Continuous
 62
     7
100
AcDbCircle
 10
0.0000000000006821
 20
-49.99999999999864
 30
0.0
 40
5.0
  0
LINE
  5
254A
330
2547
100
AcDbEntity
  8
JIS
  6
ByBlock
 62
     7
100
AcDbLine
 10
0.0000000000006821
 20
-39.99999999999954
 30
0.0
 11
0.0000000000006821
 21
0.0000000000004547
 31
0.0
  0
ENDBLK
  5
254C
330
2547
100
AcDbEntity
  8
0
100
AcDbBlockEnd
  0
BLOCK
  5
272E
330
272A
100
AcDbEntity
  8
0
100
AcDbBlockBegin
  2
ET61
 70
     0
 10
0.0
 20
0.0
 30
0.0
  3
ET61
  1

  0
LWPOLYLINE
  5
272B
330
272A
100
AcDbEntity
  8
GAIKEI2
  6
ByBlock
 62
     7
100
AcDbPolyline
 90
        4
 70
     1
 43
0.0
 10
-11.0
 20
10.0
 10
11.0
 20
10.0
 10
11.0
 20
-10.0
 10
-11.0
 20
-10.0
  0
LWPOLYLINE
  5
272C
330
272A
100
AcDbEntity
  8
GAIKEI2
  6
ByBlock
 62
     7
100
AcDbPolyline
 90
        4
 70
     1
 43
0.0
 10
-8.0
 20
7.0
 10
8.0
 20
7.0
 10
8.0
 20
-7.0
 10
-8.0
 20
-7.0
  0
CIRCLE
  5
272D
330
272A
100
AcDbEntity
  8
1
  6
Continuous
100
AcDbCircle
 10
0.0
 20
0.0
 30
0.0
 40
5.0
  0
ENDBLK
  5
272F
330
272A
100
AcDbEntity
  8
0
100
AcDbBlockEnd
  0
BLOCK
  5
27FA
330
27EC
100
AcDbEntity
  8
0
100
AcDbBlockBegin
  2
*D10
 70
     1
 10
0.0
 20
0.0
 30
0.0
  3
*D10
  1

  0
LINE
  5
3BE7
330
27EC
100
AcDbEntity
  8
製造図
  6
Continuous
 62
     1
370
    -2
100
AcDbLine
 10
2210.0
 20
1747.0
 30
0.0
 11
2330.0
 21
1747.0
 31
0.0
  0
LINE
  5
3BE8
330
27EC
100
AcDbEntity
  8
製造図
  6
Continuous
 62
     1
370
    -2
100
AcDbLine
 10
2272.5
 20
1707.0
 30
0.0
 11
2330.0
 21
1707.0
 31
0.0
  0
LINE
  5
3BE9
330
27EC
100
AcDbEntity
  8
製造図
  6
Continuous
 62
     1
370
    -2
100
AcDbLine
 10
2315.0
 20
1739.0
 30
0.0
 11
2315.0
 21
1715.0
 31
0.0
  0
INSERT
  5
3BEA
330
27EC
100
AcDbEntity
  8
製造図
  6
Continuous
 62
     1
370
    -2
100
AcDbBlockReference
  2
UPARO1
 10
2315.0
 20
1747.0
 30
0.0
 41
8.0
 42
8.0
 43
8.0
 50
90.0
  0
INSERT
  5
3BEB
330
27EC
100
AcDbEntity
  8
製造図
  6
Continuous
 62
     1
370
    -2
100
AcDbBlockReference
  2
UPARO1
 10
2315.0
 20
1707.0
 30
0.0
 41
8.0
 42
8.0
 43
8.0
 50
270.0
  0
MTEXT
  5
3BEC
330
27EC
100
AcDbEntity
  8
製造図
  6
Continuous
 62
     1
100
AcDbMText
 10
2299.999999999999
 20
1727.0
 30
0.0
 40
25.0
 41
0.0
 71
     5
 72
     1
  1
\A1;40
 11
0.0000000000000001
 21
1.0
 31
0.0
 73
     1
 44
1.0
  0
POINT
  5
3BED
330
27EC
100
AcDbEntity
  8
DEFPOINTS
  6
Continuous
 62
     0
100
AcDbPoint
 10
2200.0
 20
1747.0
 30
0.0
  0
POINT
  5
3BEE
330
27EC
100
AcDbEntity
  8
DEFPOINTS
  6
Continuous
 62
     0
100
AcDbPoint
 10
2262.5
 20
1707.0
 30
0.0
  0
POINT
  5
3BEF
330
27EC
100
AcDbEntity
  8
DEFPOINTS
  6
Continuous
 62
     0
100
AcDbPoint
 10
2315.0
 20
1707.0
 30
0.0
  0
ENDBLK
  5
2805
330
27EC
100
AcDbEntity
  8
0
100
AcDbBlockEnd
  0
BLOCK
  5
282D
330
2825
100
AcDbEntity
  8
0
100
AcDbBlockBegin
  2
SEI
 70
     0
 10
0.0
 20
0.0
 30
0.0
  3
SEI
  1

  0
LWPOLYLINE
  5
2826
330
2825
100
AcDbEntity
  8
1
  6
Continuous
100
AcDbPolyline
 90
        2
 70
     0
 43
4.0
 10
0.0
 20
-150.0
 10
800.0
 20
-150.0
  0
LWPOLYLINE
  5
2827
330
2825
100
AcDbEntity
  8
1
  6
Continuous
100
AcDbPolyline
 90
        2
 70
     0
 43
4.0
 10
800.0
 20
-300.0
 10
0.0
 20
-300.0
  0
LWPOLYLINE
  5
2828
330
2825
100
AcDbEntity
  8
1
  6
Continuous
100
AcDbPolyline
 90
        4
 70
     1
 43
4.0
 10
0.0
 20
-450.0
 10
800.0
 20
-450.0
 10
800.0
 20
0.0
 10
0.0
 20
0.0
  0
TEXT
  5
2829
330
2825
100
AcDbEntity
  8
1
  6
Continuous
100
AcDbText
 10
111.5333333333333
 20
-395.0
 30
0.0
 40
40.0
  1
板金構造
 41
0.7
  7
M7
 72
     1
 11
175.0
 21
-375.0
 31
0.0
100
AcDbText
 73
     2
  0
TEXT
  5
282A
330
2825
100
AcDbEntity
  8
1
  6
Continuous
100
AcDbText
 10
111.5333333333333
 20
-245.0
 30
0.0
 40
40.0
  1
適用基準
 41
0.7
  7
M7
 72
     1
 11
175.0
 21
-225.0
 31
0.0
100
AcDbText
 73
     2
  0
TEXT
  5
282B
330
2825
100
AcDbEntity
  8
1
  6
Continuous
100
AcDbText
 10
77.93333333333329
 20
-95.0
 30
0.0
 40
40.0
  1
製造命令番号
 41
0.7
  7
M7
 72
     1
 11
175.0
 21
-75.0
 31
0.0
100
AcDbText
 73
     2
  0
LWPOLYLINE
  5
282C
330
2825
100
AcDbEntity
  8
1
  6
Continuous
100
AcDbPolyline
 90
        2
 70
     0
 43
4.0
 10
350.0
 20
0.0
 10
350.0
 20
-450.0
  0
ENDBLK
  5
282E
330
2825
100
AcDbEntity
  8
0
100
AcDbBlockEnd
  0
BLOCK
  5
34F2
330
34E1
100
AcDbEntity
  8
0
100
AcDbBlockBegin
  2
A$C0B1A7312
 70
     0
 10
0.0
 20
0.0
 30
0.0
  3
A$C0B1A7312
  1

  0
LINE
  5
34E2
330
34E1
100
AcDbEntity
  8
1
  6
DASHDOT
100
AcDbLine
 10
225.0000025788522
 20
2074.999998677923
 30
0.0
 11
500.0000025788522
 21
2074.999998677923
 31
0.0
  0
LINE
  5
34E3
330
34E1
100
AcDbEntity
  8
1
  6
DASHED
100
AcDbLine
 10
225.0000025788522
 20
1974.999998677924
 30
0.0
 11
500.0000025788522
 21
1974.999998677924
 31
0.0
  0
LINE
  5
34E4
330
34E1
100
AcDbEntity
  8
1
100
AcDbLine
 10
0.000002578852218
 20
1874.999998677924
 30
0.0
 11
550.0000025788522
 21
1874.999998677924
 31
0.0
  0
LINE
  5
34E5
330
34E1
100
AcDbEntity
  8
1
100
AcDbLine
 10
550.0000025788522
 20
2274.999998677924
 30
0.0
 11
0.000002578852218
 21
2274.999998677924
 31
0.0
  0
LINE
  5
34E6
330
34E1
100
AcDbEntity
  8
1
100
AcDbLine
 10
225.0000025788522
 20
2174.999998677924
 30
0.0
 11
500.0000025788522
 21
2174.999998677924
 31
0.0
  0
TEXT
  5
34E7
330
34E1
100
AcDbEntity
  8
1
100
AcDbText
 10
100.0000025788522
 20
2049.999998677924
 30
0.0
 40
40.0
  1
信号線
 41
0.7
  7
M7
100
AcDbText
  0
LINE
  5
34E8
330
34E1
100
AcDbEntity
  8
1
100
AcDbLine
 10
0.000002578852218
 20
2274.999998677924
 30
0.0
 11
0.000002578852218
 21
1874.999998677924
 31
0.0
  0
TEXT
  5
34E9
330
34E1
100
AcDbEntity
  8
1
100
AcDbText
 10
103.0666692455189
 20
1954.999998677924
 30
0.0
 40
40.0
  1
接地線
 41
0.7
  7
M7
 72
     1
 11
150.0000025788522
 21
1974.999998677924
 31
0.0
100
AcDbText
 73
     2
  0
TEXT
  5
34EA
330
34E1
100
AcDbEntity
  8
1
100
AcDbText
 10
100.0000025788522
 20
2149.999998677924
 30
0.0
 40
40.0
  1
充電線
 41
0.7
  7
M7
100
AcDbText
  0
LINE
  5
34EB
330
34E1
100
AcDbEntity
  8
1
100
AcDbLine
 10
550.0000025788522
 20
1874.999998677924
 30
0.0
 11
550.0000025788522
 21
2274.999998677924
 31
0.0
  0
LINE
  5
34EC
330
34E1
100
AcDbEntity
  8
1
  6
DASHDOT
100
AcDbLine
 10
3050.000002578852
 20
74.99999867792394
 30
0.0
 11
3375.000002578852
 21
74.99999867792394
 31
0.0
  0
SPLINE
  5
34ED
330
34E1
100
AcDbEntity
  8
1
100
AcDbSpline
210
0.0
220
0.0
230
1.0
 70
     8
 71
     3
 72
    10
 73
     6
 74
     4
 42
0.0000000001
 43
0.0000000001
 44
0.0000000001
 12
0.7071067811865476
 22
-0.7071067811865476
 32
0.0
 13
0.7071067811865476
 23
-0.7071067811865476
 33
0.0
 40
0.0
 40
0.0
 40
0.0
 40
0.0
 40
70.71067811865475
 40
141.4213562373095
 40
212.1320343559642
 40
212.1320343559642
 40
212.1320343559642
 40
212.1320343559642
 10
3425.000002578852
 20
149.9999986779239
 30
0.0
 10
3441.666669245519
 20
133.3333320112572
 30
0.0
 10
3315.000002578852
 20
99.99999867792391
 30
0.0
 10
3485.000002578852
 20
49.99999867792396
 30
0.0
 10
3358.333335912186
 20
16.66666534459061
 30
0.0
 10
3375.000002578852
 20
-0.0000013220760593
 30
0.0
 11
3425.000002578852
 21
149.9999986779239
 31
0.0
 11
3375.000002578852
 21
99.99999867792395
 31
0.0
 11
3425.000002578852
 21
49.99999867792394
 31
0.0
 11
3375.000002578852
 21
-0.0000013220760593
 31
0.0
  0
SPLINE
  5
34EE
330
34E1
100
AcDbEntity
  8
1
100
AcDbSpline
210
0.0
220
0.0
230
1.0
 70
     8
 71
     3
 72
    10
 73
     6
 74
     4
 42
0.0000000001
 43
0.0000000001
 44
0.0000000001
 12
0.7071067811865476
 22
-0.7071067811865476
 32
0.0
 13
0.7071067811865476
 23
-0.7071067811865476
 33
0.0
 40
0.0
 40
0.0
 40
0.0
 40
0.0
 40
70.71067811865475
 40
141.4213562373095
 40
212.1320343559642
 40
212.1320343559642
 40
212.1320343559642
 40
212.1320343559642
 10
3400.000002578852
 20
149.9999986779239
 30
0.0
 10
3416.666669245518
 20
133.3333320112572
 30
0.0
 10
3290.000002578852
 20
99.99999867792391
 30
0.0
 10
3460.000002578852
 20
49.99999867792396
 30
0.0
 10
3333.333335912186
 20
16.66666534459061
 30
0.0
 10
3350.000002578852
 20
-0.0000013220760593
 30
0.0
 11
3400.000002578852
 21
149.9999986779239
 31
0.0
 11
3350.000002578852
 21
99.99999867792395
 31
0.0
 11
3400.000002578852
 21
49.99999867792394
 31
0.0
 11
3350.000002578852
 21
-0.0000013220760593
 31
0.0
  0
LINE
  5
34EF
330
34E1
100
AcDbEntity
  8
1
  6
DASHDOT
100
AcDbLine
 10
3050.000002578852
 20
724.9999986779239
 30
0.0
 11
3375.000002578852
 21
724.9999986779239
 31
0.0
  0
SPLINE
  5
34F0
330
34E1
100
AcDbEntity
  8
1
100
AcDbSpline
210
0.0
220
0.0
230
1.0
 70
     8
 71
     3
 72
    10
 73
     6
 74
     4
 42
0.0000000001
 43
0.0000000001
 44
0.0000000001
 12
0.7071067811865476
 22
-0.7071067811865476
 32
0.0
 13
0.7071067811865476
 23
-0.7071067811865476
 33
0.0
 40
0.0
 40
0.0
 40
0.0
 40
0.0
 40
70.71067811865475
 40
141.4213562373095
 40
212.1320343559642
 40
212.1320343559642
 40
212.1320343559642
 40
212.1320343559642
 10
3425.000002578852
 20
799.9999986779239
 30
0.0
 10
3441.666669245519
 20
783.3333320112573
 30
0.0
 10
3315.000002578852
 20
749.9999986779238
 30
0.0
 10
3485.000002578852
 20
699.9999986779242
 30
0.0
 10
3358.333335912186
 20
666.6666653445905
 30
0.0
 10
3375.000002578852
 20
649.9999986779239
 30
0.0
 11
3425.000002578852
 21
799.9999986779239
 31
0.0
 11
3375.000002578852
 21
749.9999986779239
 31
0.0
 11
3425.000002578852
 21
699.9999986779239
 31
0.0
 11
3375.000002578852
 21
649.9999986779239
 31
0.0
  0
SPLINE
  5
34F1
330
34E1
100
AcDbEntity
  8
1
100
AcDbSpline
210
0.0
220
0.0
230
1.0
 70
     8
 71
     3
 72
    10
 73
     6
 74
     4
 42
0.0000000001
 43
0.0000000001
 44
0.0000000001
 12
0.7071067811865476
 22
-0.7071067811865476
 32
0.0
 13
0.7071067811865476
 23
-0.7071067811865476
 33
0.0
 40
0.0
 40
0.0
 40
0.0
 40
0.0
 40
70.71067811865475
 40
141.4213562373095
 40
212.1320343559642
 40
212.1320343559642
 40
212.1320343559642
 40
212.1320343559642
 10
3400.000002578852
 20
799.9999986779239
 30
0.0
 10
3416.666669245518
 20
783.3333320112573
 30
0.0
 10
3290.000002578852
 20
749.9999986779238
 30
0.0
 10
3460.000002578852
 20
699.9999986779242
 30
0.0
 10
3333.333335912186
 20
666.6666653445905
 30
0.0
 10
3350.000002578852
 20
649.9999986779239
 30
0.0
 11
3400.000002578852
 21
799.9999986779239
 31
0.0
 11
3350.000002578852
 21
749.9999986779239
 31
0.0
 11
3400.000002578852
 21
699.9999986779239
 31
0.0
 11
3350.000002578852
 21
649.9999986779239
 31
0.0
  0
ENDBLK
  5
34F3
330
34E1
100
AcDbEntity
  8
0
100
AcDbBlockEnd
  0
ENDSEC
  0
SECTION
  2
ENTITIES
  0
TEXT
  5
27EB
330
18
100
AcDbEntity
  8
製造図
  6
Continuous
100
AcDbText
 10
1257.916666666666
 20
1052.499999999999
 30
0.0
 40
25.0
  1
ET62
 41
0.7
  7
M7
 72
     1
 11
1290.0
 21
1065.0
 31
0.0
100
AcDbText
 73
     2
  0
DIMENSION
  5
27F9
330
18
100
AcDbEntity
  8
製造図
  6
Continuous
100
AcDbDimension
  2
*D10
 10
2315.0
 20
1707.0
 30
0.0
 11
2299.999999999999
 21
1727.0
 31
0.0
 70
    32
 71
     5
 42
40.0
  3
STANDARD
100
AcDbAlignedDimension
 13
2200.0
 23
1747.0
 33
0.0
 14
2262.5
 24
1707.0
 34
0.0
 50
90.0
100
AcDbRotatedDimension
1001
ACAD
1000
DSTYLE
1002
{
1070
    78
1070
     8
1070
   140
1040
2.5
1070
   147
1040
0.25
1070
   271
1070
     1
1070
     5
1000
UPARO1
1002
}
  0
TEXT
  5
2806
330
18
100
AcDbEntity
  8
製造図
  6
Continuous
100
AcDbText
 10
2161.25
 20
1662.5
 30
0.0
 40
25.0
  1
T14ビス
 41
0.7
  7
M7
 72
     1
 11
2205.0
 21
1675.0
 31
0.0
100
AcDbText
 73
     2
  0
TEXT
  5
2807
330
18
100
AcDbEntity
  8
製造図
  6
Continuous
100
AcDbText
 10
2469.774178778952
 20
1336.866201717404
 30
0.0
 40
25.0
  1
６１
 41
0.7
  7
M7
 72
     1
 11
2486.690845445619
 21
1349.366201717403
 31
0.0
100
AcDbText
 73
     2
  0
LEADER
  5
2808
330
18
100
AcDbEntity
  8
製造図
  6
Continuous
 62
     1
100
AcDbLeader
  3
STANDARD
 73
     0
 74
     0
 75
     1
 40
25.0
 41
145.3333333333332
 76
     3
 10
3196.106648164052
 20
1634.194822575755
 30
0.0
 10
3271.053830255974
 20
1682.284915038222
 30
0.0
 10
3279.053830255974
 20
1682.284915038222
 30
0.0
340
2809
1001
ACAD
1000
DSTYLE
1002
{
1070
   341
1005
2055
1070
    78
1070
     8
1070
   140
1040
2.5
1070
   147
1040
0.25
1070
   271
1070
     1
1070
   342
1005
2055
1002
}
  0
MTEXT
  5
2809
102
{ACAD_REACTORS
330
2808
102
}
330
18
100
AcDbEntity
  8
製造図
  6
Continuous
 62
     1
100
AcDbMText
 10
3281.553830255974
 20
1697.284915038221
 30
0.0
 40
25.0
 41
0.0
 71
     4
 72
     1
  1
\A1;M8×15ボス
 73
     1
 44
1.0
  0
LWPOLYLINE
  5
280A
330
18
100
AcDbEntity
  8
製造図
  6
Continuous
100
AcDbPolyline
 90
        4
 70
     1
 43
0.0
 10
750.0
 20
800.0
 10
1050.0
 20
900.0
 10
1050.0
 20
800.0
 10
750.0
 20
700.0
  0
LINE
  5
280B
330
18
100
AcDbEntity
  8
製造図
  6
Continuous
100
AcDbLine
 10
750.0
 20
700.0
 30
0.0
 11
775.0
 21
700.0
 31
0.0
  0
LINE
  5
280C
330
18
100
AcDbEntity
  8
製造図
  6
Continuous
100
AcDbLine
 10
775.0
 20
700.0
 30
0.0
 11
1075.0
 21
800.0
 31
0.0
  0
LINE
  5
280D
330
18
100
AcDbEntity
  8
製造図
  6
Continuous
100
AcDbLine
 10
1075.0
 20
800.0
 30
0.0
 11
1050.0
 21
800.0
 31
0.0
  0
LINE
  5
280E
330
18
100
AcDbEntity
  8
製造図
  6
Continuous
100
AcDbLine
 10
750.0
 20
805.0
 30
0.0
 11
750.0
 21
900.0
 31
0.0
  0
LINE
  5
280F
330
18
100
AcDbEntity
  8
製造図
  6
Continuous
100
AcDbLine
 10
750.0
 20
890.0
 30
0.0
 11
1050.0
 21
985.0
 31
0.0
  0
LINE
  5
2810
330
18
100
AcDbEntity
  8
製造図
  6
Continuous
100
AcDbLine
 10
1050.0
 20
995.0
 30
0.0
 11
1050.0
 21
905.0
 31
0.0
  0
LINE
  5
2811
330
18
100
AcDbEntity
  8
製造図
  6
Continuous
100
AcDbLine
 10
745.0
 20
798.2142857142857
 30
0.0
 11
660.0
 21
767.8571428571428
 31
0.0
  0
LINE
  5
2813
330
18
100
AcDbEntity
  8
製造図
  6
Continuous
100
AcDbLine
 10
745.0
 20
698.2142857142857
 30
0.0
 11
660.0
 21
667.8571428571428
 31
0.0
  0
LINE
  5
2817
330
18
100
AcDbEntity
  8
製造図
  6
Continuous
100
AcDbLine
 10
665.0
 20
769.6428571428572
 30
0.0
 11
665.0
 21
669.6428571428572
 31
0.0
  0
TEXT
  5
281C
330
18
100
AcDbEntity
  8
製造図
  6
Continuous
100
AcDbText
 10
865.2702149154871
 20
787.2302396360046
 30
0.0
 40
25.0
  1
t1.6
 41
0.7
  7
M7
 72
     1
 11
897.3535482488205
 21
799.7302396360046
 31
0.0
100
AcDbText
 73
     2
  0
TEXT
  5
281D
330
18
100
AcDbEntity
  8
製造図
  6
Continuous
100
AcDbText
 10
862.1425880324938
 20
947.0341408881605
 30
0.0
 40
25.0
  1
260
 41
0.7
  7
M7
 72
     1
 11
885.4759213658271
 21
959.5341408881605
 31
0.0
100
AcDbText
 73
     2
  0
TEXT
  5
281E
330
18
100
AcDbEntity
  8
製造図
  6
Continuous
100
AcDbText
 10
615.9266709844092
 20
703.9731043086113
 30
0.0
 40
25.0
  1
60
 41
0.7
  7
M7
 72
     1
 11
630.5100043177426
 21
716.4731043086113
 31
0.0
100
AcDbText
 73
     2
  0
TEXT
  5
281F
330
18
100
AcDbEntity
  8
製造図
  6
Continuous
100
AcDbText
 10
941.9556999399221
 20
686.2266541623394
 30
0.0
 40
25.0
  1
セパレーター
 41
0.7
  7
M7
 72
     1
 11
1002.622366606588
 21
698.7266541623394
 31
0.0
100
AcDbText
 73
     2
  0
TEXT
  5
2820
330
18
100
AcDbEntity
  8
製造図
  6
Continuous
100
AcDbText
 10
988.0390332732556
 20
656.2266541623394
 30
0.0
 40
25.0
  1
1ヶ
 41
0.7
  7
M7
 72
     1
 11
1002.622366606588
 21
668.7266541623394
 31
0.0
100
AcDbText
 73
     2
  0
TEXT
  5
2821
330
18
100
AcDbEntity
  8
製造図
  6
Continuous
100
AcDbText
 10
952.4556999399223
 20
626.2266541623394
 30
0.0
 40
25.0
  1
塗装仕上げ
 41
0.7
  7
M7
 72
     1
 11
1002.622366606588
 21
638.7266541623394
 31
0.0
100
AcDbText
 73
     2
  0
TEXT
  5
2822
330
18
100
AcDbEntity
  8
製造図
  6
Continuous
100
AcDbText
 10
973.4556999399222
 20
596.2266541623393
 30
0.0
 40
25.0
  1
製作品
 41
0.7
  7
M7
 72
     1
 11
1002.622366606588
 21
608.7266541623393
 31
0.0
100
AcDbText
 73
     2
  0
LWPOLYLINE
  5
2823
330
18
100
AcDbEntity
  8
製造図
  6
Continuous
100
AcDbPolyline
 90
        4
 70
     1
 43
0.0
 10
522.6008673950527
 20
1024.621002994176
 10
1186.690759777282
 20
1024.621002994176
 10
1186.690759777282
 20
571.2550643622234
 10
522.6008673950527
 20
571.2550643622234
  0
INSERT
  5
284F
330
18
100
AcDbEntity
  8
製造図
  6
Continuous
100
AcDbBlockReference
  2
SEI
 10
1653.209300679689
 20
843.4231066178009
 30
0.0
  0
TEXT
  5
2850
330
18
100
AcDbEntity
  8
製造図
  6
Continuous
100
AcDbText
 10
2157.207318015222
 20
584.2892167152959
 30
0.0
 40
60.0
  1
東京都
 41
0.7
  7
M7
 72
     1
 11
2227.207318015222
 21
614.2892167152958
 31
0.0
100
AcDbText
 73
     2
  0
TEXT
  5
2851
330
18
100
AcDbEntity
  8
製造図
  6
Continuous
100
AcDbText
 10
2020.134775069507
 20
745.1735042032042
 30
0.0
 40
50.0
  1
８１８０１４２１００
 41
0.7
  7
M7
 72
     1
 11
2224.301441736173
 21
770.1735042032042
 31
0.0
100
AcDbText
 73
     2
  0
TEXT
  5
2C4D
330
18
100
AcDbEntity
  8
1
100
AcDbText
 10
2825.0
 20
200.0
 30
0.0
 40
40.0
  1

 41
0.7
  7
M7
100
AcDbText
  0
LINE
  5
328B
330
18
100
AcDbEntity
  8
1
  6
DASHED
100
AcDbLine
 10
200.0
 20
1675.0
 30
0.0
 11
250.0
 21
1600.0
 31
0.0
  0
LINE
  5
328E
330
18
100
AcDbEntity
  8
1
100
AcDbLine
 10
195.0
 20
1050.0
 30
0.0
 11
205.0
 21
1050.0
 31
0.0
  0
LINE
  5
328F
330
18
100
AcDbEntity
  8
1
100
AcDbLine
 10
185.0
 20
1075.0
 30
0.0
 11
215.0
 21
1075.0
 31
0.0
  0
LINE
  5
3290
330
18
100
AcDbEntity
  8
1
100
AcDbLine
 10
175.0
 20
1100.0
 30
0.0
 11
225.0
 21
1100.0
 31
0.0
  0
LINE
  5
3292
330
18
100
AcDbEntity
  8
1
100
AcDbLine
 10
650.0
 20
1200.0
 30
0.0
 11
800.0
 21
1200.0
 31
0.0
  0
LINE
  5
3293
330
18
100
AcDbEntity
  8
1
100
AcDbLine
 10
800.0
 20
1175.0
 30
0.0
 11
650.0
 21
1175.0
 31
0.0
  0
LINE
  5
3294
330
18
100
AcDbEntity
  8
1
100
AcDbLine
 10
650.0
 20
1175.0
 30
0.0
 11
650.0
 21
1200.0
 31
0.0
  0
CIRCLE
  5
3295
330
18
100
AcDbEntity
  8
1
100
AcDbCircle
 10
750.0
 20
1187.5
 30
0.0
 40
7.5
  0
CIRCLE
  5
3296
330
18
100
AcDbEntity
  8
1
100
AcDbCircle
 10
725.0
 20
1187.5
 30
0.0
 40
7.5
  0
LINE
  5
3297
330
18
100
AcDbEntity
  8
1
100
AcDbLine
 10
800.0
 20
1200.0
 30
0.0
 11
800.0
 21
1175.0
 31
0.0
  0
LINE
  5
32C3
330
18
100
AcDbEntity
  8
1
  6
DASHED
100
AcDbLine
 10
250.0
 20
1600.0
 30
0.0
 11
675.0
 21
1600.0
 31
0.0
  0
LINE
  5
34B9
330
18
100
AcDbEntity
  8
1
  6
DASHED
100
AcDbLine
 10
200.0
 20
1100.0
 30
0.0
 11
200.0
 21
1675.0
 31
0.0
  0
LINE
  5
34F6
330
18
100
AcDbEntity
  8
1
  6
DASHED
100
AcDbLine
 10
350.0000025788522
 20
874.999998677924
 30
0.0
 11
550.0000025788522
 21
874.999998677924
 31
0.0
  0
LINE
  5
34F8
330
18
100
AcDbEntity
  8
1
100
AcDbLine
 10
600.0000025788522
 20
999.999998677924
 30
0.0
 11
50.00000257885222
 21
999.999998677924
 31
0.0
  0
LINE
  5
34F9
330
18
100
AcDbEntity
  8
1
100
AcDbLine
 10
350.0000025788522
 20
949.999998677924
 30
0.0
 11
550.0000025788522
 21
949.999998677924
 31
0.0
  0
TEXT
  5
34FC
330
18
100
AcDbEntity
  8
1
100
AcDbText
 10
153.0666692455188
 20
854.9999986779239
 30
0.0
 40
40.0
  1
接地線
 41
0.7
  7
M7
 72
     1
 11
200.0000025788522
 21
874.999998677924
 31
0.0
100
AcDbText
 73
     2
  0
TEXT
  5
34FD
330
18
100
AcDbEntity
  8
1
100
AcDbText
 10
100.0000025788522
 20
924.999998677924
 30
0.0
 40
40.0
  1
充電線・信号線
 41
0.7
  7
M7
100
AcDbText
  0
LINE
  5
352B
330
18
100
AcDbEntity
  8
1
100
AcDbLine
 10
50.0
 20
1000.0
 30
0.0
 11
50.0
 21
575.0
 31
0.0
  0
LINE
  5
352C
330
18
100
AcDbEntity
  8
1
100
AcDbLine
 10
50.0
 20
575.0
 30
0.0
 11
600.0
 21
575.0
 31
0.0
  0
LINE
  5
352D
330
18
100
AcDbEntity
  8
1
100
AcDbLine
 10
600.0
 20
575.0
 30
0.0
 11
600.0
 21
1000.0
 31
0.0
  0
LINE
  5
3541
330
18
100
AcDbEntity
  8
1
100
AcDbLine
 10
350.0
 20
2525.0
 30
0.0
 11
325.0
 21
2500.0
 31
0.0
  0
LINE
  5
3542
330
18
100
AcDbEntity
  8
1
100
AcDbLine
 10
325.0
 20
2500.0
 30
0.0
 11
375.0
 21
2500.0
 31
0.0
  0
LINE
  5
3543
330
18
100
AcDbEntity
  8
1
100
AcDbLine
 10
375.0
 20
2500.0
 30
0.0
 11
350.0
 21
2525.0
 31
0.0
  0
CIRCLE
  5
3556
330
18
100
AcDbEntity
  8
1
100
AcDbCircle
 10
350.0
 20
2162.5
 30
0.0
 40
37.5
  0
LINE
  5
3557
330
18
100
AcDbEntity
  8
1
100
AcDbLine
 10
625.0
 20
2087.499999999999
 30
0.0
 11
600.0
 21
2125.0
 31
0.0
  0
LINE
  5
3558
330
18
100
AcDbEntity
  8
1
100
AcDbLine
 10
600.0
 20
2125.0
 30
0.0
 11
575.0
 21
2087.499999999999
 31
0.0
  0
CIRCLE
  5
3559
330
18
100
AcDbEntity
  8
1
100
AcDbCircle
 10
600.0
 20
2100.0
 30
0.0
 40
37.5
  0
CIRCLE
  5
355A
330
18
100
AcDbEntity
  8
1
100
AcDbCircle
 10
350.0
 20
2100.0
 30
0.0
 40
37.5
  0
LINE
  5
355B
330
18
100
AcDbEntity
  8
1
100
AcDbLine
 10
325.0
 20
2112.5
 30
0.0
 11
375.0
 21
2112.5
 31
0.0
  0
LINE
  5
355C
330
18
100
AcDbEntity
  8
1
100
AcDbLine
 10
325.0
 20
2087.499999999999
 30
0.0
 11
375.0
 21
2087.499999999999
 31
0.0
  0
LINE
  5
355D
330
18
100
AcDbEntity
  8
1
100
AcDbLine
 10
325.0
 20
2100.0
 30
0.0
 11
375.0
 21
2100.0
 31
0.0
  0
LINE
  5
355E
330
18
100
AcDbEntity
  8
1
100
AcDbLine
 10
325.0
 20
2162.5
 30
0.0
 11
375.0
 21
2162.5
 31
0.0
  0
LINE
  5
355F
330
18
100
AcDbEntity
  8
1
100
AcDbLine
 10
575.0
 20
2087.499999999999
 30
0.0
 11
625.0
 21
2087.499999999999
 31
0.0
  0
CIRCLE
  5
3560
330
18
100
AcDbEntity
  8
1
100
AcDbCircle
 10
600.0
 20
2162.5
 30
0.0
 40
37.5
  0
LINE
  5
3561
330
18
100
AcDbEntity
  8
1
100
AcDbLine
 10
600.0
 20
2187.5
 30
0.0
 11
600.0
 21
2162.5
 31
0.0
  0
LINE
  5
3562
330
18
100
AcDbEntity
  8
1
100
AcDbLine
 10
600.0
 20
2162.5
 30
0.0
 11
587.5
 21
2150.0
 31
0.0
  0
LINE
  5
3563
330
18
100
AcDbEntity
  8
1
100
AcDbLine
 10
600.0
 20
2162.5
 30
0.0
 11
612.5
 21
2150.0
 31
0.0
  0
LINE
  5
3570
330
18
100
AcDbEntity
  8
1
100
AcDbLine
 10
312.4999955023449
 20
1937.500003026558
 30
0.0
 11
349.9999955023449
 21
1887.500003026558
 31
0.0
  0
LINE
  5
3571
330
18
100
AcDbEntity
  8
1
100
AcDbLine
 10
349.9999955023449
 20
1887.500003026558
 30
0.0
 11
349.9999955023449
 21
1887.500003026558
 31
0.0
  0
LINE
  5
3572
330
18
100
AcDbEntity
  8
1
100
AcDbLine
 10
362.4999955023449
 20
1950.000003026558
 30
0.0
 11
337.4999955023449
 21
1925.000003026558
 31
0.0
  0
LINE
  5
3573
330
18
100
AcDbEntity
  8
1
100
AcDbLine
 10
337.4999955023449
 20
1950.000003026558
 30
0.0
 11
362.4999955023449
 21
1925.000003026558
 31
0.0
  0
LINE
  5
3575
330
18
100
AcDbEntity
  8
1
100
AcDbLine
 10
350.0
 20
1887.5
 30
0.0
 11
350.0
 21
1837.5
 31
0.0
  0
LINE
  5
3576
330
18
100
AcDbEntity
  8
1
100
AcDbLine
 10
350.0
 20
1975.0
 30
0.0
 11
350.0
 21
1937.5
 31
0.0
  0
LINE
  5
357D
330
18
100
AcDbEntity
  8
1
100
AcDbLine
 10
350.0
 20
2062.5
 30
0.0
 11
350.0
 21
1975.0
 31
0.0
  0
LINE
  5
357E
330
18
100
AcDbEntity
  8
1
100
AcDbLine
 10
600.0
 20
2000.0
 30
0.0
 11
600.0
 21
2062.5
 31
0.0
  0
LINE
  5
357F
330
18
100
AcDbEntity
  8
1
100
AcDbLine
 10
412.4999955023449
 20
1950.000003026558
 30
0.0
 11
437.4999955023449
 21
1925.000003026558
 31
0.0
  0
LINE
  5
3580
330
18
100
AcDbEntity
  8
1
100
AcDbLine
 10
437.4999955023449
 20
1950.000003026558
 30
0.0
 11
412.4999955023449
 21
1925.000003026558
 31
0.0
  0
LINE
  5
3581
330
18
100
AcDbEntity
  8
1
100
AcDbLine
 10
425.0
 20
1975.0
 30
0.0
 11
425.0
 21
1937.5
 31
0.0
  0
LINE
  5
3582
330
18
100
AcDbEntity
  8
1
100
AcDbLine
 10
387.4999955023449
 20
1937.500003026558
 30
0.0
 11
424.9999955023449
 21
1887.500003026558
 31
0.0
  0
LINE
  5
3583
330
18
100
AcDbEntity
  8
1
100
AcDbLine
 10
424.9999955023449
 20
1887.500003026558
 30
0.0
 11
424.9999955023449
 21
1887.500003026558
 31
0.0
  0
LINE
  5
3584
330
18
100
AcDbEntity
  8
1
100
AcDbLine
 10
425.0
 20
1887.5
 30
0.0
 11
425.0
 21
1837.5
 31
0.0
  0
LINE
  5
3585
330
18
100
AcDbEntity
  8
1
100
AcDbLine
 10
200.0
 20
1975.0
 30
0.0
 11
200.0
 21
1925.0
 31
0.0
  0
LINE
  5
3586
330
18
100
AcDbEntity
  8
1
100
AcDbLine
 10
212.4999955023449
 20
1937.500003026558
 30
0.0
 11
187.4999955023449
 21
1912.500003026558
 31
0.0
  0
LINE
  5
3587
330
18
100
AcDbEntity
  8
1
100
AcDbLine
 10
187.4999955023449
 20
1937.500003026558
 30
0.0
 11
212.4999955023449
 21
1912.500003026558
 31
0.0
  0
LINE
  5
3588
330
18
100
AcDbEntity
  8
1
100
AcDbLine
 10
162.4999955023449
 20
1925.000003026558
 30
0.0
 11
199.9999955023449
 21
1875.000003026558
 31
0.0
  0
LINE
  5
3589
330
18
100
AcDbEntity
  8
1
100
AcDbLine
 10
200.0
 20
1875.0
 30
0.0
 11
200.0
 21
1825.0
 31
0.0
  0
LINE
  5
358A
330
18
100
AcDbEntity
  8
1
100
AcDbLine
 10
199.9999955023449
 20
1875.000003026558
 30
0.0
 11
199.9999955023449
 21
1875.000003026558
 31
0.0
  0
LWPOLYLINE
  5
358F
330
18
100
AcDbEntity
  8
1
100
AcDbPolyline
 90
        4
 70
     1
 43
0.0
 10
175.0
 20
1825.0
 10
225.0
 20
1825.0
 10
225.0
 20
1725.0
 10
175.0
 20
1725.0
  0
LINE
  5
3590
330
18
100
AcDbEntity
  8
1
100
AcDbLine
 10
200.0
 20
1812.5
 30
0.0
 11
187.5
 21
1762.5
 31
0.0
  0
LINE
  5
3591
330
18
100
AcDbEntity
  8
1
100
AcDbLine
 10
187.5
 20
1762.5
 30
0.0
 11
212.5
 21
1787.5
 31
0.0
  0
LINE
  5
3592
330
18
100
AcDbEntity
  8
1
100
AcDbLine
 10
212.5
 20
1787.5
 30
0.0
 11
200.0
 21
1737.5
 31
0.0
  0
LINE
  5
3593
330
18
100
AcDbEntity
  8
1
100
AcDbLine
 10
200.0
 20
1737.5
 30
0.0
 11
212.5
 21
1750.0
 31
0.0
  0
LINE
  5
3594
330
18
100
AcDbEntity
  8
1
100
AcDbLine
 10
200.0
 20
1737.5
 30
0.0
 11
187.5
 21
1750.0
 31
0.0
  0
LINE
  5
3595
330
18
100
AcDbEntity
  8
1
100
AcDbLine
 10
187.5
 20
1750.0
 30
0.0
 11
212.5
 21
1750.0
 31
0.0
  0
HATCH
  5
35A5
330
18
100
AcDbEntity
  8
1
100
AcDbHatch
 10
0.0
 20
0.0
 30
0.0
210
0.0
220
0.0
230
1.0
  2
ANSI31
 70
     0
 71
     0
 91
        2
 92
        7
 72
     0
 73
     1
 93
        3
 10
200.0000000000001
 20
1737.5
 10
203.1250000000001
 20
1750.0
 10
187.5000000000002
 20
1750.0
 97
        0
 92
        7
 72
     0
 73
     1
 93
        3
 10
212.5
 20
1750.0
 10
203.125
 20
1750.0
 10
200.0
 20
1737.5
 97
        0
 75
     0
 76
     1
 52
0.0
 41
0.5
 77
     0
 78
     1
 53
45.0
 43
-300.0
 44
625.0
 45
-1.122532015133643
 46
1.122532015133644
 79
     0
 47
0.668826438124856
 98
        2
 10
197.793164630124
 20
1744.766098882295
 10
205.1557467404018
 20
1746.103754806577
  0
CIRCLE
  5
35A6
330
18
100
AcDbEntity
  8
1
100
AcDbCircle
 10
350.0
 20
2250.0
 30
0.0
 40
5.0
  0
LINE
  5
35A8
330
18
100
AcDbEntity
  8
1
100
AcDbLine
 10
200.0
 20
1675.0
 30
0.0
 11
200.0
 21
1725.0
 31
0.0
  0
LINE
  5
35A9
330
18
100
AcDbEntity
  8
1
  6
DASHDOT
100
AcDbLine
 10
125.0
 20
1975.0
 30
0.0
 11
275.0
 21
1975.0
 31
0.0
  0
LINE
  5
35AA
330
18
100
AcDbEntity
  8
1
  6
DASHDOT
100
AcDbLine
 10
275.0
 20
1975.0
 30
0.0
 11
275.0
 21
1675.0
 31
0.0
  0
LINE
  5
35AB
330
18
100
AcDbEntity
  8
1
  6
DASHDOT
100
AcDbLine
 10
275.0
 20
1675.0
 30
0.0
 11
125.0
 21
1675.0
 31
0.0
  0
LINE
  5
35AC
330
18
100
AcDbEntity
  8
1
  6
DASHDOT
100
AcDbLine
 10
125.0
 20
1675.0
 30
0.0
 11
125.0
 21
1975.0
 31
0.0
  0
LINE
  5
35AD
330
18
100
AcDbEntity
  8
1
100
AcDbLine
 10
350.0
 20
2500.0
 30
0.0
 11
350.0
 21
2200.0
 31
0.0
  0
LINE
  5
35AE
330
18
100
AcDbEntity
  8
1
100
AcDbLine
 10
350.0
 20
2250.0
 30
0.0
 11
600.0
 21
2250.0
 31
0.0
  0
LINE
  5
35AF
330
18
100
AcDbEntity
  8
1
100
AcDbLine
 10
600.0
 20
2250.0
 30
0.0
 11
600.0
 21
2200.0
 31
0.0
  0
CIRCLE
  5
35CA
330
18
100
AcDbEntity
  8
1
100
AcDbCircle
 10
200.0
 20
1975.0
 30
0.0
 40
10.0
  0
CIRCLE
  5
35CB
330
18
100
AcDbEntity
  8
1
100
AcDbCircle
 10
200.0
 20
1675.0
 30
0.0
 40
10.0
  0
LINE
  5
35CC
330
18
100
AcDbEntity
  8
1
100
AcDbLine
 10
200.0
 20
1975.0
 30
0.0
 11
200.0
 21
2025.0
 31
0.0
  0
LINE
  5
35CD
330
18
100
AcDbEntity
  8
1
100
AcDbLine
 10
200.0
 20
2025.0
 30
0.0
 11
425.0
 21
2025.0
 31
0.0
  0
LINE
  5
35CE
330
18
100
AcDbEntity
  8
1
100
AcDbLine
 10
425.0
 20
2025.0
 30
0.0
 11
425.0
 21
1975.0
 31
0.0
  0
CIRCLE
  5
35CF
330
18
100
AcDbEntity
  8
1
100
AcDbCircle
 10
350.0
 20
2025.0
 30
0.0
 40
5.0
  0
LINE
  5
35D0
330
18
100
AcDbEntity
  8
1
100
AcDbLine
 10
512.4999955023449
 20
1950.000003026558
 30
0.0
 11
537.4999955023449
 21
1925.000003026558
 31
0.0
  0
LINE
  5
35D1
330
18
100
AcDbEntity
  8
1
100
AcDbLine
 10
537.4999955023449
 20
1950.000003026558
 30
0.0
 11
512.4999955023449
 21
1925.000003026558
 31
0.0
  0
LINE
  5
35D2
330
18
100
AcDbEntity
  8
1
100
AcDbLine
 10
600.0
 20
1887.5
 30
0.0
 11
600.0
 21
1837.5
 31
0.0
  0
LINE
  5
35D3
330
18
100
AcDbEntity
  8
1
100
AcDbLine
 10
525.0
 20
1887.5
 30
0.0
 11
525.0
 21
1837.5
 31
0.0
  0
LINE
  5
35D4
330
18
100
AcDbEntity
  8
1
  6
DASHDOT
100
AcDbLine
 10
800.0
 20
1975.0
 30
0.0
 11
800.0
 21
1675.0
 31
0.0
  0
LINE
  5
35D5
330
18
100
AcDbEntity
  8
1
  6
DASHDOT
100
AcDbLine
 10
650.0
 20
1675.0
 30
0.0
 11
650.0
 21
1975.0
 31
0.0
  0
LINE
  5
35D6
330
18
100
AcDbEntity
  8
1
100
AcDbLine
 10
725.0
 20
1875.0
 30
0.0
 11
725.0
 21
1825.0
 31
0.0
  0
LINE
  5
35D7
330
18
100
AcDbEntity
  8
1
  6
DASHDOT
100
AcDbLine
 10
800.0
 20
1675.0
 30
0.0
 11
650.0
 21
1675.0
 31
0.0
  0
HATCH
  5
35D8
330
18
100
AcDbEntity
  8
1
100
AcDbHatch
 10
0.0
 20
0.0
 30
0.0
210
0.0
220
0.0
230
1.0
  2
ANSI31
 70
     0
 71
     0
 91
        2
 92
        7
 72
     0
 73
     1
 93
        3
 10
725.0
 20
1737.5
 10
728.125
 20
1750.0
 10
712.5
 20
1750.0
 97
        0
 92
        7
 72
     0
 73
     1
 93
        3
 10
737.4999999999998
 20
1750.0
 10
728.125
 20
1750.0
 10
725.0
 20
1737.5
 97
        0
 75
     0
 76
     1
 52
0.0
 41
0.5
 77
     0
 78
     1
 53
45.0
 43
225.0
 44
625.0
 45
-1.122532015133643
 46
1.122532015133644
 79
     0
 47
0.668826438124856
 98
        2
 10
722.7931646301239
 20
1744.766098882295
 10
730.1557467404018
 20
1746.103754806577
  0
LWPOLYLINE
  5
35D9
330
18
100
AcDbEntity
  8
1
100
AcDbPolyline
 90
        4
 70
     1
 43
0.0
 10
700.0
 20
1825.0
 10
750.0
 20
1825.0
 10
750.0
 20
1725.0
 10
700.0
 20
1725.0
  0
LINE
  5
35DA
330
18
100
AcDbEntity
  8
1
100
AcDbLine
 10
725.0
 20
1737.5
 30
0.0
 11
712.5
 21
1750.0
 31
0.0
  0
LINE
  5
35DB
330
18
100
AcDbEntity
  8
1
100
AcDbLine
 10
725.0
 20
1737.5
 30
0.0
 11
737.5
 21
1750.0
 31
0.0
  0
LINE
  5
35DC
330
18
100
AcDbEntity
  8
1
100
AcDbLine
 10
737.5
 20
1787.5
 30
0.0
 11
725.0
 21
1737.5
 31
0.0
  0
LINE
  5
35DD
330
18
100
AcDbEntity
  8
1
100
AcDbLine
 10
725.0
 20
1675.0
 30
0.0
 11
725.0
 21
1725.0
 31
0.0
  0
CIRCLE
  5
35DE
330
18
100
AcDbEntity
  8
1
100
AcDbCircle
 10
725.0
 20
1675.0
 30
0.0
 40
10.0
  0
LINE
  5
35DF
330
18
100
AcDbEntity
  8
1
100
AcDbLine
 10
725.0
 20
1812.5
 30
0.0
 11
712.5
 21
1762.5
 31
0.0
  0
LINE
  5
35E0
330
18
100
AcDbEntity
  8
1
100
AcDbLine
 10
712.5
 20
1750.0
 30
0.0
 11
737.5
 21
1750.0
 31
0.0
  0
LINE
  5
35E1
330
18
100
AcDbEntity
  8
1
100
AcDbLine
 10
712.5
 20
1762.5
 30
0.0
 11
737.5
 21
1787.5
 31
0.0
  0
LINE
  5
35E2
330
18
100
AcDbEntity
  8
1
  6
DASHDOT
100
AcDbLine
 10
650.0
 20
1975.0
 30
0.0
 11
800.0
 21
1975.0
 31
0.0
  0
LINE
  5
35E4
330
18
100
AcDbEntity
  8
1
100
AcDbLine
 10
725.0
 20
1975.0
 30
0.0
 11
725.0
 21
1925.0
 31
0.0
  0
LINE
  5
35E5
330
18
100
AcDbEntity
  8
1
100
AcDbLine
 10
687.4999955023449
 20
1925.000003026558
 30
0.0
 11
724.9999955023449
 21
1875.000003026558
 31
0.0
  0
LINE
  5
35E6
330
18
100
AcDbEntity
  8
1
100
AcDbLine
 10
724.9999955023449
 20
1875.000003026558
 30
0.0
 11
724.9999955023449
 21
1875.000003026558
 31
0.0
  0
LINE
  5
35E7
330
18
100
AcDbEntity
  8
1
100
AcDbLine
 10
712.4999955023449
 20
1937.500003026558
 30
0.0
 11
737.4999955023449
 21
1912.500003026558
 31
0.0
  0
LINE
  5
35E8
330
18
100
AcDbEntity
  8
1
100
AcDbLine
 10
737.4999955023449
 20
1937.500003026558
 30
0.0
 11
712.4999955023449
 21
1912.500003026558
 31
0.0
  0
CIRCLE
  5
35EA
330
18
100
AcDbEntity
  8
1
100
AcDbCircle
 10
725.0
 20
1975.0
 30
0.0
 40
10.0
  0
LINE
  5
35EB
330
18
100
AcDbEntity
  8
1
100
AcDbLine
 10
600.0
 20
1975.0
 30
0.0
 11
600.0
 21
1937.5
 31
0.0
  0
LINE
  5
35EC
330
18
100
AcDbEntity
  8
1
100
AcDbLine
 10
525.0
 20
1975.0
 30
0.0
 11
525.0
 21
1937.5
 31
0.0
  0
LINE
  5
35ED
330
18
100
AcDbEntity
  8
1
100
AcDbLine
 10
562.4999955023449
 20
1937.500003026558
 30
0.0
 11
599.9999955023449
 21
1887.500003026558
 31
0.0
  0
LINE
  5
35EE
330
18
100
AcDbEntity
  8
1
100
AcDbLine
 10
612.4999955023449
 20
1950.000003026558
 30
0.0
 11
587.4999955023449
 21
1925.000003026558
 31
0.0
  0
LINE
  5
35EF
330
18
100
AcDbEntity
  8
1
100
AcDbLine
 10
587.4999955023449
 20
1950.000003026558
 30
0.0
 11
612.4999955023449
 21
1925.000003026558
 31
0.0
  0
LINE
  5
35F0
330
18
100
AcDbEntity
  8
1
100
AcDbLine
 10
487.4999955023449
 20
1937.500003026558
 30
0.0
 11
524.9999955023449
 21
1887.500003026558
 31
0.0
  0
LINE
  5
35F1
330
18
100
AcDbEntity
  8
1
100
AcDbLine
 10
599.9999955023449
 20
1887.500003026558
 30
0.0
 11
599.9999955023449
 21
1887.500003026558
 31
0.0
  0
LINE
  5
35F2
330
18
100
AcDbEntity
  8
1
100
AcDbLine
 10
524.9999955023449
 20
1887.500003026558
 30
0.0
 11
524.9999955023449
 21
1887.500003026558
 31
0.0
  0
LINE
  5
35F3
330
18
100
AcDbEntity
  8
1
100
AcDbLine
 10
525.0
 20
2025.0
 30
0.0
 11
525.0
 21
1975.0
 31
0.0
  0
CIRCLE
  5
35F4
330
18
100
AcDbEntity
  8
1
100
AcDbCircle
 10
600.0
 20
2025.0
 30
0.0
 40
5.0
  0
LINE
  5
35F5
330
18
100
AcDbEntity
  8
1
100
AcDbLine
 10
525.0
 20
2025.0
 30
0.0
 11
725.0
 21
2025.0
 31
0.0
  0
LINE
  5
35F6
330
18
100
AcDbEntity
  8
1
100
AcDbLine
 10
725.0
 20
2025.0
 30
0.0
 11
725.0
 21
1975.0
 31
0.0
  0
LINE
  5
35F7
330
18
100
AcDbEntity
  8
1
100
AcDbLine
 10
600.0
 20
1975.0
 30
0.0
 11
600.0
 21
2000.0
 31
0.0
  0
LINE
  5
35F9
330
18
100
AcDbEntity
  8
1
  6
DASHED
100
AcDbLine
 10
725.0
 20
1675.0
 30
0.0
 11
675.0
 21
1600.0
 31
0.0
  0
LINE
  5
35FA
330
18
100
AcDbEntity
  8
1
  6
DASHED
100
AcDbLine
 10
725.0
 20
1187.5
 30
0.0
 11
725.0
 21
1675.0
 31
0.0
  0
CIRCLE
  5
35FB
330
18
100
AcDbEntity
  8
1
100
AcDbCircle
 10
775.0
 20
1187.5
 30
0.0
 40
7.5
  0
CIRCLE
  5
35FC
330
18
100
AcDbEntity
  8
1
100
AcDbCircle
 10
675.0
 20
1187.5
 30
0.0
 40
7.5
  0
CIRCLE
  5
35FD
330
18
100
AcDbEntity
  8
1
100
AcDbCircle
 10
700.0
 20
1187.5
 30
0.0
 40
7.5
  0
LINE
  5
3600
330
18
100
AcDbEntity
  8
1
370
    35
100
AcDbLine
 10
525.0
 20
1837.5
 30
0.0
 11
525.0
 21
1500.0
 31
0.0
  0
LINE
  5
3602
330
18
100
AcDbEntity
  8
1
370
    35
100
AcDbLine
 10
525.0
 20
1500.0
 30
0.0
 11
900.0
 21
1500.0
 31
0.0
  0
LINE
  5
3603
330
18
100
AcDbEntity
  8
1
370
    35
100
AcDbLine
 10
425.0
 20
1837.5
 30
0.0
 11
425.0
 21
1450.0
 31
0.0
  0
LINE
  5
3604
330
18
100
AcDbEntity
  8
1
370
    35
100
AcDbLine
 10
425.0
 20
1450.0
 30
0.0
 11
950.0
 21
1450.0
 31
0.0
  0
LINE
  5
3605
330
18
100
AcDbEntity
  8
1
100
AcDbLine
 10
1287.499995502344
 20
2162.500003026558
 30
0.0
 11
1324.999995502345
 21
2112.500003026558
 31
0.0
  0
LINE
  5
3606
330
18
100
AcDbEntity
  8
1
100
AcDbLine
 10
1325.0
 20
2112.5
 30
0.0
 11
1325.0
 21
2000.0
 31
0.0
  0
LINE
  5
3607
330
18
100
AcDbEntity
  8
1
100
AcDbLine
 10
1312.499995502345
 20
2175.000003026558
 30
0.0
 11
1337.499995502344
 21
2150.000003026558
 31
0.0
  0
LINE
  5
3608
330
18
100
AcDbEntity
  8
1
100
AcDbLine
 10
1337.499995502344
 20
2175.000003026558
 30
0.0
 11
1312.499995502345
 21
2150.000003026558
 31
0.0
  0
LINE
  5
3609
330
18
100
AcDbEntity
  8
1
100
AcDbLine
 10
1324.999995502345
 20
2112.500003026558
 30
0.0
 11
1324.999995502345
 21
2112.500003026558
 31
0.0
  0
LINE
  5
360A
330
18
100
AcDbEntity
  8
1
100
AcDbLine
 10
1325.0
 20
2200.0
 30
0.0
 11
1325.0
 21
2162.5
 31
0.0
  0
LINE
  5
360B
330
18
100
AcDbEntity
  8
1
100
AcDbLine
 10
1325.0
 20
2000.0
 30
0.0
 11
1325.0
 21
1962.5
 31
0.0
  0
LINE
  5
360C
330
18
100
AcDbEntity
  8
1
100
AcDbLine
 10
1337.499995502344
 20
1975.000003026558
 30
0.0
 11
1312.499995502345
 21
1950.000003026558
 31
0.0
  0
LINE
  5
360D
330
18
100
AcDbEntity
  8
1
100
AcDbLine
 10
1312.499995502345
 20
1975.000003026558
 30
0.0
 11
1337.499995502344
 21
1950.000003026558
 31
0.0
  0
LINE
  5
360E
330
18
100
AcDbEntity
  8
1
100
AcDbLine
 10
1325.0
 20
1912.5
 30
0.0
 11
1325.0
 21
1862.5
 31
0.0
  0
LINE
  5
360F
330
18
100
AcDbEntity
  8
1
100
AcDbLine
 10
1287.499995502344
 20
1962.500003026558
 30
0.0
 11
1324.999995502345
 21
1912.500003026558
 31
0.0
  0
LINE
  5
3610
330
18
100
AcDbEntity
  8
1
100
AcDbLine
 10
1324.999995502345
 20
1912.500003026558
 30
0.0
 11
1324.999995502345
 21
1912.500003026558
 31
0.0
  0
LINE
  5
3611
330
18
100
AcDbEntity
  8
1
100
AcDbLine
 10
1437.499995502345
 20
1962.500003026558
 30
0.0
 11
1474.999995502344
 21
1912.500003026558
 31
0.0
  0
LINE
  5
3612
330
18
100
AcDbEntity
  8
1
100
AcDbLine
 10
1475.0
 20
1912.5
 30
0.0
 11
1475.0
 21
1862.5
 31
0.0
  0
LINE
  5
3613
330
18
100
AcDbEntity
  8
1
100
AcDbLine
 10
1474.999995502344
 20
1912.500003026558
 30
0.0
 11
1474.999995502344
 21
1912.500003026558
 31
0.0
  0
LINE
  5
3614
330
18
100
AcDbEntity
  8
1
100
AcDbLine
 10
1475.0
 20
2000.0
 30
0.0
 11
1475.0
 21
1962.5
 31
0.0
  0
LINE
  5
3615
330
18
100
AcDbEntity
  8
1
100
AcDbLine
 10
1462.499995502344
 20
1975.000003026558
 30
0.0
 11
1487.499995502345
 21
1950.000003026558
 31
0.0
  0
LINE
  5
3616
330
18
100
AcDbEntity
  8
1
100
AcDbLine
 10
1487.499995502345
 20
1975.000003026558
 30
0.0
 11
1462.499995502344
 21
1950.000003026558
 31
0.0
  0
LINE
  5
3617
330
18
100
AcDbEntity
  8
1
100
AcDbLine
 10
1325.0
 20
2050.0
 30
0.0
 11
1475.0
 21
2050.0
 31
0.0
  0
LINE
  5
3618
330
18
100
AcDbEntity
  8
1
100
AcDbLine
 10
1475.0
 20
2050.0
 30
0.0
 11
1475.0
 21
2000.0
 31
0.0
  0
CIRCLE
  5
3619
330
18
100
AcDbEntity
  8
1
100
AcDbCircle
 10
1325.0
 20
2050.0
 30
0.0
 40
5.0
  0
LINE
  5
361A
330
18
100
AcDbEntity
  8
1
100
AcDbLine
 10
1125.0
 20
2150.0
 30
0.0
 11
1125.0
 21
2100.0
 31
0.0
  0
LINE
  5
361B
330
18
100
AcDbEntity
  8
1
  6
DASHDOT
100
AcDbLine
 10
1200.0
 20
2250.0
 30
0.0
 11
1200.0
 21
1950.0
 31
0.0
  0
LINE
  5
361C
330
18
100
AcDbEntity
  8
1
  6
DASHDOT
100
AcDbLine
 10
1050.0
 20
1950.0
 30
0.0
 11
1050.0
 21
2250.0
 31
0.0
  0
LINE
  5
361D
330
18
100
AcDbEntity
  8
1
  6
DASHDOT
100
AcDbLine
 10
1200.0
 20
1950.0
 30
0.0
 11
1050.0
 21
1950.0
 31
0.0
  0
LWPOLYLINE
  5
361E
330
18
100
AcDbEntity
  8
1
100
AcDbPolyline
 90
        4
 70
     1
 43
0.0
 10
1100.0
 20
2100.0
 10
1150.0
 20
2100.0
 10
1150.0
 20
2000.0
 10
1100.0
 20
2000.0
  0
LINE
  5
3620
330
18
100
AcDbEntity
  8
1
100
AcDbLine
 10
1125.0
 20
1950.0
 30
0.0
 11
1125.0
 21
2000.0
 31
0.0
  0
CIRCLE
  5
3621
330
18
100
AcDbEntity
  8
1
100
AcDbCircle
 10
1125.0
 20
1950.0
 30
0.0
 40
10.0
  0
HATCH
  5
3622
330
18
100
AcDbEntity
  8
1
100
AcDbHatch
 10
0.0
 20
0.0
 30
0.0
210
0.0
220
0.0
230
1.0
  2
ANSI31
 70
     0
 71
     0
 91
        2
 92
        7
 72
     0
 73
     1
 93
        3
 10
1125.0
 20
2012.5
 10
1128.125
 20
2025.0
 10
1112.5
 20
2025.0
 97
        0
 92
        7
 72
     0
 73
     1
 93
        3
 10
1137.499999999999
 20
2025.0
 10
1128.125
 20
2025.0
 10
1125.0
 20
2012.5
 97
        0
 75
     0
 76
     1
 52
0.0
 41
0.5
 77
     0
 78
     1
 53
45.0
 43
625.0
 44
900.0
 45
-1.122532015133643
 46
1.122532015133644
 79
     0
 47
0.668826438124856
 98
        2
 10
1122.793164630124
 20
2019.766098882295
 10
1130.155746740401
 20
2021.103754806577
  0
LINE
  5
3623
330
18
100
AcDbEntity
  8
1
100
AcDbLine
 10
1112.5
 20
2025.0
 30
0.0
 11
1137.499999999999
 21
2025.0
 31
0.0
  0
LINE
  5
3624
330
18
100
AcDbEntity
  8
1
100
AcDbLine
 10
1125.0
 20
2012.5
 30
0.0
 11
1137.499999999999
 21
2025.0
 31
0.0
  0
LINE
  5
3625
330
18
100
AcDbEntity
  8
1
100
AcDbLine
 10
1125.0
 20
2012.5
 30
0.0
 11
1112.5
 21
2025.0
 31
0.0
  0
LINE
  5
3628
330
18
100
AcDbEntity
  8
1
  6
DASHDOT
100
AcDbLine
 10
1050.0
 20
2250.0
 30
0.0
 11
1200.0
 21
2250.0
 31
0.0
  0
CIRCLE
  5
3629
330
18
100
AcDbEntity
  8
1
100
AcDbCircle
 10
1125.0
 20
2250.0
 30
0.0
 40
10.0
  0
LINE
  5
362A
330
18
100
AcDbEntity
  8
1
370
    35
100
AcDbLine
 10
1125.0
 20
2300.0
 30
0.0
 11
1125.0
 21
2250.0
 31
0.0
  0
LINE
  5
362B
330
18
100
AcDbEntity
  8
1
100
AcDbLine
 10
1137.499995502345
 20
2212.500003026558
 30
0.0
 11
1112.499995502344
 21
2187.500003026558
 31
0.0
  0
LINE
  5
362C
330
18
100
AcDbEntity
  8
1
100
AcDbLine
 10
1112.499995502344
 20
2212.500003026558
 30
0.0
 11
1137.499995502345
 21
2187.500003026558
 31
0.0
  0
LINE
  5
362D
330
18
100
AcDbEntity
  8
1
100
AcDbLine
 10
1125.0
 20
2250.0
 30
0.0
 11
1125.0
 21
2200.0
 31
0.0
  0
LINE
  5
362E
330
18
100
AcDbEntity
  8
1
100
AcDbLine
 10
1124.999995502345
 20
2150.000003026558
 30
0.0
 11
1124.999995502345
 21
2150.000003026558
 31
0.0
  0
LINE
  5
362F
330
18
100
AcDbEntity
  8
1
100
AcDbLine
 10
1087.499995502344
 20
2200.000003026558
 30
0.0
 11
1124.999995502345
 21
2150.000003026558
 31
0.0
  0
LINE
  5
3630
330
18
100
AcDbEntity
  8
1
370
    35
100
AcDbLine
 10
950.0
 20
1450.0
 30
0.0
 11
950.0
 21
2350.0
 31
0.0
  0
LINE
  5
3631
330
18
100
AcDbEntity
  8
1
370
    35
100
AcDbLine
 10
950.0
 20
2350.0
 30
0.0
 11
1325.0
 21
2350.0
 31
0.0
  0
LINE
  5
3632
330
18
100
AcDbEntity
  8
1
370
    35
100
AcDbLine
 10
1325.0
 20
2350.0
 30
0.0
 11
1325.0
 21
2200.0
 31
0.0
  0
LINE
  5
3634
330
18
100
AcDbEntity
  8
1
370
    35
100
AcDbLine
 10
1300.0
 20
2325.0
 30
0.0
 11
1125.0
 21
2325.0
 31
0.0
  0
LINE
  5
3635
330
18
100
AcDbEntity
  8
1
370
    35
100
AcDbLine
 10
1125.0
 20
2325.0
 30
0.0
 11
1125.0
 21
2300.0
 31
0.0
  0
CIRCLE
  5
3636
330
18
100
AcDbEntity
  8
1
100
AcDbCircle
 10
1325.0
 20
2250.0
 30
0.0
 40
10.0
  0
LWPOLYLINE
  5
3637
330
18
100
AcDbEntity
  8
1
100
AcDbPolyline
 90
        4
 70
     1
 43
0.0
 10
1250.0
 20
2250.0
 10
1625.0
 20
2250.0
 10
1625.0
 20
1750.0
 10
1250.0
 20
1750.0
  0
LINE
  5
3638
330
18
100
AcDbEntity
  8
1
100
AcDbLine
 10
1500.0
 20
1800.0
 30
0.0
 11
1600.0
 21
1800.0
 31
0.0
  0
LINE
  5
3639
330
18
100
AcDbEntity
  8
1
100
AcDbLine
 10
1600.0
 20
1775.0
 30
0.0
 11
1500.0
 21
1775.0
 31
0.0
  0
CIRCLE
  5
363A
330
18
100
AcDbEntity
  8
1
100
AcDbCircle
 10
1525.0
 20
1787.5
 30
0.0
 40
7.5
  0
LINE
  5
363B
330
18
100
AcDbEntity
  8
1
100
AcDbLine
 10
1500.0
 20
1775.0
 30
0.0
 11
1500.0
 21
1800.0
 31
0.0
  0
CIRCLE
  5
363D
330
18
100
AcDbEntity
  8
1
100
AcDbCircle
 10
1575.0
 20
1787.5
 30
0.0
 40
7.5
  0
CIRCLE
  5
363E
330
18
100
AcDbEntity
  8
1
100
AcDbCircle
 10
1550.0
 20
1787.5
 30
0.0
 40
7.5
  0
LINE
  5
3640
330
18
100
AcDbEntity
  8
1
100
AcDbLine
 10
1600.0
 20
1800.0
 30
0.0
 11
1600.0
 21
1775.0
 31
0.0
  0
LINE
  5
3641
330
18
100
AcDbEntity
  8
1
  6
DASHED
100
AcDbLine
 10
1125.0
 20
1100.0
 30
0.0
 11
1125.0
 21
1950.0
 31
0.0
  0
LINE
  5
3642
330
18
100
AcDbEntity
  8
1
100
AcDbLine
 10
1120.0
 20
1050.0
 30
0.0
 11
1130.0
 21
1050.0
 31
0.0
  0
LINE
  5
3643
330
18
100
AcDbEntity
  8
1
100
AcDbLine
 10
1110.0
 20
1075.0
 30
0.0
 11
1140.0
 21
1075.0
 31
0.0
  0
LINE
  5
3644
330
18
100
AcDbEntity
  8
1
100
AcDbLine
 10
1100.0
 20
1100.0
 30
0.0
 11
1150.0
 21
1100.0
 31
0.0
  0
LINE
  5
3645
330
18
100
AcDbEntity
  8
1
  6
DASHED
100
AcDbLine
 10
1175.0
 20
1700.0
 30
0.0
 11
1525.0
 21
1700.0
 31
0.0
  0
LINE
  5
3646
330
18
100
AcDbEntity
  8
1
  6
DASHED
100
AcDbLine
 10
1125.0
 20
1950.0
 30
0.0
 11
1175.0
 21
1700.0
 31
0.0
  0
LINE
  5
3647
330
18
100
AcDbEntity
  8
1
  6
DASHED
100
AcDbLine
 10
1525.0
 20
1700.0
 30
0.0
 11
1525.0
 21
1787.5
 31
0.0
  0
LWPOLYLINE
  5
3648
330
18
100
AcDbEntity
  8
1
100
AcDbPolyline
 90
        4
 70
     1
 43
0.0
 10
1425.0
 20
1400.0
 10
1600.0
 20
1400.0
 10
1600.0
 20
1300.0
 10
1425.0
 20
1300.0
  0
LINE
  5
364A
330
18
100
AcDbEntity
  8
1
370
    35
100
AcDbLine
 10
1475.0
 20
1862.5
 30
0.0
 11
1475.0
 21
1550.0
 31
0.0
  0
CIRCLE
  5
364B
330
18
100
AcDbEntity
  8
1
100
AcDbCircle
 10
1475.0
 20
1400.0
 30
0.0
 40
10.0
  0
LINE
  5
364C
330
18
100
AcDbEntity
  8
1
370
    35
100
AcDbLine
 10
1300.0
 20
2325.0
 30
0.0
 11
1325.0
 21
2250.0
 31
0.0
  0
LINE
  5
364D
330
18
100
AcDbEntity
  8
1
  6
DASHED
100
AcDbLine
 10
1550.0
 20
1500.0
 30
0.0
 11
1550.0
 21
1787.5
 31
0.0
  0
CIRCLE
  5
364E
330
18
100
AcDbEntity
  8
1
100
AcDbCircle
 10
1550.0
 20
1400.0
 30
0.0
 40
10.0
  0
LINE
  5
364F
330
18
100
AcDbEntity
  8
1
370
    35
100
AcDbLine
 10
1325.0
 20
1862.5
 30
0.0
 11
1325.0
 21
1250.0
 31
0.0
  0
LINE
  5
3650
330
18
100
AcDbEntity
  8
1
100
AcDbLine
 10
1312.5
 20
1237.5
 30
0.0
 11
1312.5
 21
1212.5
 31
0.0
  0
LINE
  5
3651
330
18
100
AcDbEntity
  8
1
100
AcDbLine
 10
1337.5
 20
1237.5
 30
0.0
 11
1337.5
 21
1212.5
 31
0.0
  0
CIRCLE
  5
3652
330
18
100
AcDbEntity
  8
1
100
AcDbCircle
 10
1325.0
 20
1200.0
 30
0.0
 40
5.0
  0
LWPOLYLINE
  5
3653
330
18
100
AcDbEntity
  8
1
100
AcDbPolyline
 90
        4
 70
     1
 43
0.0
 10
1300.0
 20
1250.0
 10
1350.0
 20
1250.0
 10
1350.0
 20
1187.5
 10
1300.0
 20
1187.5
  0
ARC
  5
3654
330
18
100
AcDbEntity
  8
1
100
AcDbCircle
 10
1650.0
 20
775.0000000000002
 30
0.0
 40
25.0
100
AcDbArc
 50
270.0
 51
90.0
  0
LINE
  5
3655
330
18
100
AcDbEntity
  8
1
100
AcDbLine
 10
1650.0
 20
750.0
 30
0.0
 11
1637.5
 21
750.0
 31
0.0
  0
LINE
  5
3656
330
18
100
AcDbEntity
  8
1
100
AcDbLine
 10
1637.5
 20
750.0
 30
0.0
 11
1637.5
 21
800.0
 31
0.0
  0
LINE
  5
3657
330
18
100
AcDbEntity
  8
1
100
AcDbLine
 10
1637.5
 20
800.0
 30
0.0
 11
1650.0
 21
800.0
 31
0.0
  0
LINE
  5
3658
330
18
100
AcDbEntity
  8
1
100
AcDbLine
 10
1637.5
 20
762.5
 30
0.0
 11
1612.5
 21
762.5
 31
0.0
  0
LINE
  5
3659
330
18
100
AcDbEntity
  8
1
100
AcDbLine
 10
1637.5
 20
787.5
 30
0.0
 11
1612.5
 21
787.5
 31
0.0
  0
LINE
  5
365A
330
18
100
AcDbEntity
  8
1
100
AcDbLine
 10
1612.5
 20
775.0
 30
0.0
 11
1637.5
 21
775.0
 31
0.0
  0
LINE
  5
365B
330
18
100
AcDbEntity
  8
1
100
AcDbLine
 10
1325.0
 20
1100.0
 30
0.0
 11
1325.0
 21
1075.0
 31
0.0
  0
LWPOLYLINE
  5
365C
330
18
100
AcDbEntity
  8
1
100
AcDbPolyline
 90
        4
 70
     1
 43
0.0
 10
1300.0
 20
975.0
 10
1350.0
 20
975.0
 10
1350.0
 20
750.0
 10
1300.0
 20
750.0
  0
LINE
  5
365D
330
18
100
AcDbEntity
  8
1
100
AcDbLine
 10
1312.5
 20
962.5
 30
0.0
 11
1312.5
 21
937.5
 31
0.0
  0
LINE
  5
365E
330
18
100
AcDbEntity
  8
1
100
AcDbLine
 10
1337.5
 20
962.5
 30
0.0
 11
1337.5
 21
937.5
 31
0.0
  0
CIRCLE
  5
365F
330
18
100
AcDbEntity
  8
1
100
AcDbCircle
 10
1325.0
 20
925.0
 30
0.0
 40
5.0
  0
CIRCLE
  5
3660
330
18
100
AcDbEntity
  8
1
100
AcDbCircle
 10
1325.0
 20
875.0
 30
0.0
 40
5.0
  0
LINE
  5
3661
330
18
100
AcDbEntity
  8
1
100
AcDbLine
 10
1312.5
 20
912.5
 30
0.0
 11
1312.5
 21
887.5
 31
0.0
  0
LINE
  5
3662
330
18
100
AcDbEntity
  8
1
100
AcDbLine
 10
1337.5
 20
912.5
 30
0.0
 11
1337.5
 21
887.5
 31
0.0
  0
CIRCLE
  5
3663
330
18
100
AcDbEntity
  8
1
100
AcDbCircle
 10
1325.0
 20
825.0
 30
0.0
 40
5.0
  0
CIRCLE
  5
3664
330
18
100
AcDbEntity
  8
1
100
AcDbCircle
 10
1325.0
 20
775.0
 30
0.0
 40
5.0
  0
LINE
  5
3665
330
18
100
AcDbEntity
  8
1
100
AcDbLine
 10
1312.5
 20
812.5
 30
0.0
 11
1312.5
 21
787.5
 31
0.0
  0
LINE
  5
3666
330
18
100
AcDbEntity
  8
1
100
AcDbLine
 10
1337.5
 20
812.5
 30
0.0
 11
1337.5
 21
787.5
 31
0.0
  0
LINE
  5
3667
330
18
100
AcDbEntity
  8
1
100
AcDbLine
 10
1312.5
 20
862.5
 30
0.0
 11
1312.5
 21
837.5
 31
0.0
  0
LINE
  5
3668
330
18
100
AcDbEntity
  8
1
100
AcDbLine
 10
1337.5
 20
862.5
 30
0.0
 11
1337.5
 21
837.5
 31
0.0
  0
LINE
  5
37E8
330
18
100
AcDbEntity
  8
1
100
AcDbLine
 10
1925.000006578057
 20
2500.00000085728
 30
0.0
 11
1975.000006578056
 21
2450.000000857281
 31
0.0
  0
LINE
  5
37E9
330
18
100
AcDbEntity
  8
1
100
AcDbLine
 10
2000.000006578056
 20
2500.00000085728
 30
0.0
 11
1900.000006578056
 21
2450.000000857281
 31
0.0
  0
LINE
  5
37EA
330
18
100
AcDbEntity
  8
1
100
AcDbLine
 10
2525.000006578057
 20
1950.00000085728
 30
0.0
 11
2475.000006578056
 21
1950.00000085728
 31
0.0
  0
TEXT
  5
37F7
330
18
100
AcDbEntity
  8
1
100
AcDbText
 10
2470.133333924099
 20
1205.000003254851
 30
0.0
 40
40.0
  1
端末
 41
0.7
  7
M7
 72
     1
 11
2500.000000590766
 21
1225.000003254851
 31
0.0
100
AcDbText
 73
     2
  0
LINE
  5
3816
330
18
100
AcDbEntity
  8
1
100
AcDbLine
 10
1896.495540578762
 20
2482.619950960661
 30
0.0
 11
1946.495540578762
 21
2432.619950960661
 31
0.0
  0
LINE
  5
3817
330
18
100
AcDbEntity
  8
1
100
AcDbLine
 10
2000.000006578056
 20
2500.00000085728
 30
0.0
 11
2100.000006578056
 21
2550.000000857281
 31
0.0
  0
LINE
  5
3818
330
18
100
AcDbEntity
  8
1
100
AcDbLine
 10
2025.000006578057
 20
2550.000000857281
 30
0.0
 11
2075.000006578056
 21
2500.00000085728
 31
0.0
  0
LINE
  5
3819
330
18
100
AcDbEntity
  8
1
100
AcDbLine
 10
2055.111619254576
 20
2568.222277698978
 30
0.0
 11
2105.111619254576
 21
2518.222277698978
 31
0.0
  0
LINE
  5
381B
330
18
100
AcDbEntity
  8
1
100
AcDbLine
 10
2175.000006578057
 20
1612.50000085728
 30
0.0
 11
2200.000006578056
 21
1612.50000085728
 31
0.0
  0
LINE
  5
381C
330
18
100
AcDbEntity
  8
1
100
AcDbLine
 10
2200.000006578056
 20
1637.50000085728
 30
0.0
 11
2175.000006578057
 21
1637.50000085728
 31
0.0
  0
LINE
  5
381D
330
18
100
AcDbEntity
  8
1
100
AcDbLine
 10
2175.000006578057
 20
1637.50000085728
 30
0.0
 11
2175.000006578057
 21
1612.50000085728
 31
0.0
  0
LINE
  5
381F
330
18
100
AcDbEntity
  8
1
100
AcDbLine
 10
2200.000006578056
 20
1612.50000085728
 30
0.0
 11
2200.000006578056
 21
1637.50000085728
 31
0.0
  0
TEXT
  5
3828
330
18
100
AcDbEntity
  8
1
100
AcDbText
 10
2690.633337732692
 20
1567.500005636599
 30
0.0
 40
40.0
  1
NTT回線
 41
0.7
  7
M7
 72
     1
 11
2762.500004399358
 21
1587.500005636599
 31
0.0
100
AcDbText
 73
     2
  0
LINE
  5
382A
330
18
100
AcDbEntity
  8
1
100
AcDbLine
 10
2525.000006578057
 20
2250.00000085728
 30
0.0
 11
2525.000006578057
 21
1950.00000085728
 31
0.0
  0
LINE
  5
382B
330
18
100
AcDbEntity
  8
1
100
AcDbLine
 10
2000.000006578056
 20
2387.500000857281
 30
0.0
 11
2000.000006578056
 21
2500.00000085728
 31
0.0
  0
LINE
  5
3840
330
18
100
AcDbEntity
  8
1
370
    35
100
AcDbLine
 10
1675.0
 20
775.0
 30
0.0
 11
1975.0
 21
775.0
 31
0.0
  0
LINE
  5
3841
330
18
100
AcDbEntity
  8
1
100
AcDbLine
 10
1312.5
 20
1137.499999999999
 30
0.0
 11
1312.5
 21
1162.499999999999
 31
0.0
  0
LINE
  5
3842
330
18
100
AcDbEntity
  8
1
100
AcDbLine
 10
1337.5
 20
1137.499999999999
 30
0.0
 11
1337.5
 21
1162.499999999999
 31
0.0
  0
LINE
  5
3843
330
18
100
AcDbEntity
  8
1
100
AcDbLine
 10
1325.0
 20
1162.499999999999
 30
0.0
 11
1325.0
 21
1137.499999999999
 31
0.0
  0
ARC
  5
3844
330
18
100
AcDbEntity
  8
1
100
AcDbCircle
 10
1325.0
 20
1124.999999999999
 30
0.0
 40
25.0
100
AcDbArc
 50
180.0
 51
0.0
  0
LINE
  5
3845
330
18
100
AcDbEntity
  8
1
100
AcDbLine
 10
1300.0
 20
1137.499999999999
 30
0.0
 11
1350.0
 21
1137.499999999999
 31
0.0
  0
LINE
  5
3846
330
18
100
AcDbEntity
  8
1
100
AcDbLine
 10
1300.0
 20
1124.999999999999
 30
0.0
 11
1300.0
 21
1137.499999999999
 31
0.0
  0
LINE
  5
3847
330
18
100
AcDbEntity
  8
1
100
AcDbLine
 10
1350.0
 20
1137.499999999999
 30
0.0
 11
1350.0
 21
1124.999999999999
 31
0.0
  0
LINE
  5
3848
330
18
100
AcDbEntity
  8
1
100
AcDbLine
 10
2175.000004399358
 20
800.0000056365989
 30
0.0
 11
2025.000004399359
 21
800.0000056365989
 31
0.0
  0
LINE
  5
3849
330
18
100
AcDbEntity
  8
1
100
AcDbLine
 10
2025.000004399359
 20
700.0000056365989
 30
0.0
 11
2175.000004399358
 21
700.0000056365989
 31
0.0
  0
LINE
  5
384A
330
18
100
AcDbEntity
  8
1
100
AcDbLine
 10
1975.000004399358
 20
700.0000056365989
 30
0.0
 11
1975.000004399358
 21
825.0000056365989
 31
0.0
  0
LINE
  5
384B
330
18
100
AcDbEntity
  8
1
100
AcDbLine
 10
2025.000004399359
 20
800.0000056365989
 30
0.0
 11
2025.000004399359
 21
700.0000056365989
 31
0.0
  0
LINE
  5
384C
330
18
100
AcDbEntity
  8
1
100
AcDbLine
 10
2025.000004399359
 20
825.0000056365989
 30
0.0
 11
2025.000004399359
 21
700.0000056365989
 31
0.0
  0
LINE
  5
384D
330
18
100
AcDbEntity
  8
1
100
AcDbLine
 10
2025.000004399359
 20
700.0000056365989
 30
0.0
 11
1975.000004399358
 21
700.0000056365989
 31
0.0
  0
LINE
  5
384E
330
18
100
AcDbEntity
  8
1
100
AcDbLine
 10
1985.000004399358
 20
775.0000056365989
 30
0.0
 11
2010.000004399358
 21
775.0000056365989
 31
0.0
  0
LINE
  5
384F
330
18
100
AcDbEntity
  8
1
100
AcDbLine
 10
1975.000004399358
 20
825.0000056365989
 30
0.0
 11
2025.000004399359
 21
825.0000056365989
 31
0.0
  0
LINE
  5
3850
330
18
100
AcDbEntity
  8
1
100
AcDbLine
 10
1985.000004399358
 20
800.0000056365989
 30
0.0
 11
2010.000004399358
 21
800.0000056365989
 31
0.0
  0
LINE
  5
3851
330
18
100
AcDbEntity
  8
1
100
AcDbLine
 10
2175.000004399358
 20
700.0000056365989
 30
0.0
 11
2175.000004399358
 21
800.0000056365989
 31
0.0
  0
LINE
  5
3852
330
18
100
AcDbEntity
  8
1
100
AcDbLine
 10
2150.000004399359
 20
775.0000056365989
 30
0.0
 11
2050.000004399358
 21
775.0000056365989
 31
0.0
  0
LINE
  5
3853
330
18
100
AcDbEntity
  8
1
100
AcDbLine
 10
2050.000004399358
 20
725.0000056365989
 30
0.0
 11
2150.000004399359
 21
725.0000056365989
 31
0.0
  0
LINE
  5
3854
330
18
100
AcDbEntity
  8
1
100
AcDbLine
 10
2050.000004399358
 20
775.0000056365989
 30
0.0
 11
2050.000004399358
 21
725.0000056365989
 31
0.0
  0
LINE
  5
3855
330
18
100
AcDbEntity
  8
1
100
AcDbLine
 10
2150.000004399359
 20
725.0000056365989
 30
0.0
 11
2150.000004399359
 21
775.0000056365989
 31
0.0
  0
LINE
  5
3856
330
18
100
AcDbEntity
  8
WAKU-MOJI
  6
Continuous
100
AcDbLine
 10
2087.500006578057
 20
987.5000008572806
 30
0.0
 11
2112.500006578057
 21
987.5000008572806
 31
0.0
  0
LINE
  5
3857
330
18
100
AcDbEntity
  8
WAKU-MOJI
  6
Continuous
100
AcDbLine
 10
2112.500006578057
 20
1012.50000085728
 30
0.0
 11
2087.500006578057
 21
1012.50000085728
 31
0.0
  0
LINE
  5
3858
330
18
100
AcDbEntity
  8
WAKU-MOJI
  6
Continuous
100
AcDbLine
 10
1925.000006578057
 20
975.0000008572806
 30
0.0
 11
2125.000006578056
 21
975.0000008572806
 31
0.0
  0
LINE
  5
3859
330
18
100
AcDbEntity
  8
WAKU-MOJI
  6
Continuous
100
AcDbLine
 10
2125.000006578056
 20
1025.00000085728
 30
0.0
 11
1925.000006578057
 21
1025.00000085728
 31
0.0
  0
LINE
  5
385A
330
18
100
AcDbEntity
  8
WAKU-MOJI
  6
Continuous
100
AcDbLine
 10
2012.500006578056
 20
1012.50000085728
 30
0.0
 11
1987.500006578057
 21
1012.50000085728
 31
0.0
  0
LINE
  5
385B
330
18
100
AcDbEntity
  8
WAKU-MOJI
  6
Continuous
100
AcDbLine
 10
1987.500006578057
 20
987.5000008572806
 30
0.0
 11
2012.500006578056
 21
987.5000008572806
 31
0.0
  0
LINE
  5
385C
330
18
100
AcDbEntity
  8
WAKU-MOJI
  6
Continuous
100
AcDbLine
 10
1937.500006578057
 20
987.5000008572806
 30
0.0
 11
1962.500006578056
 21
987.5000008572806
 31
0.0
  0
LINE
  5
385D
330
18
100
AcDbEntity
  8
WAKU-MOJI
  6
Continuous
100
AcDbLine
 10
1962.500006578056
 20
1012.50000085728
 30
0.0
 11
1937.500006578057
 21
1012.50000085728
 31
0.0
  0
LINE
  5
385E
330
18
100
AcDbEntity
  8
WAKU-MOJI
  6
Continuous
100
AcDbLine
 10
1937.500006578057
 20
1012.50000085728
 30
0.0
 11
1937.500006578057
 21
987.5000008572806
 31
0.0
  0
LINE
  5
385F
330
18
100
AcDbEntity
  8
WAKU-MOJI
  6
Continuous
100
AcDbLine
 10
1925.000006578057
 20
1025.00000085728
 30
0.0
 11
1925.000006578057
 21
975.0000008572806
 31
0.0
  0
LINE
  5
3860
330
18
100
AcDbEntity
  8
WAKU-MOJI
  6
Continuous
100
AcDbLine
 10
1987.500006578057
 20
1012.50000085728
 30
0.0
 11
1987.500006578057
 21
987.5000008572806
 31
0.0
  0
LINE
  5
3861
330
18
100
AcDbEntity
  8
WAKU-MOJI
  6
Continuous
100
AcDbLine
 10
1962.500006578056
 20
987.5000008572806
 30
0.0
 11
1962.500006578056
 21
1012.50000085728
 31
0.0
  0
LINE
  5
3862
330
18
100
AcDbEntity
  8
WAKU-MOJI
  6
Continuous
100
AcDbLine
 10
2037.500006578056
 20
987.5000008572806
 30
0.0
 11
2062.500006578056
 21
987.5000008572806
 31
0.0
  0
LINE
  5
3863
330
18
100
AcDbEntity
  8
WAKU-MOJI
  6
Continuous
100
AcDbLine
 10
2062.500006578056
 20
1012.50000085728
 30
0.0
 11
2037.500006578056
 21
1012.50000085728
 31
0.0
  0
LINE
  5
3864
330
18
100
AcDbEntity
  8
WAKU-MOJI
  6
Continuous
100
AcDbLine
 10
2037.500006578056
 20
1012.50000085728
 30
0.0
 11
2037.500006578056
 21
987.5000008572806
 31
0.0
  0
LINE
  5
3865
330
18
100
AcDbEntity
  8
WAKU-MOJI
  6
Continuous
100
AcDbLine
 10
2012.500006578056
 20
987.5000008572806
 30
0.0
 11
2012.500006578056
 21
1012.50000085728
 31
0.0
  0
LINE
  5
3866
330
18
100
AcDbEntity
  8
WAKU-MOJI
  6
Continuous
100
AcDbLine
 10
2062.500006578056
 20
987.5000008572806
 30
0.0
 11
2062.500006578056
 21
1012.50000085728
 31
0.0
  0
LINE
  5
3867
330
18
100
AcDbEntity
  8
WAKU-MOJI
  6
Continuous
100
AcDbLine
 10
2087.500006578057
 20
1012.50000085728
 30
0.0
 11
2087.500006578057
 21
987.5000008572806
 31
0.0
  0
LINE
  5
3869
330
18
100
AcDbEntity
  8
WAKU-MOJI
  6
Continuous
100
AcDbLine
 10
2112.500006578057
 20
987.5000008572806
 30
0.0
 11
2112.500006578057
 21
1012.50000085728
 31
0.0
  0
LINE
  5
387B
330
18
100
AcDbEntity
  8
WAKU-MOJI
  6
Continuous
100
AcDbLine
 10
2125.000006578056
 20
975.0000008572806
 30
0.0
 11
2125.000006578056
 21
1025.00000085728
 31
0.0
  0
TEXT
  5
387C
330
18
100
AcDbEntity
  8
1
100
AcDbText
 10
2000.166667257432
 20
917.5000032548513
 30
0.0
 40
40.0
  1
HUB
 41
0.7
  7
M7
 72
     1
 11
2037.500000590765
 21
937.5000032548514
 31
0.0
100
AcDbText
 73
     2
  0
LINE
  5
387D
330
18
100
AcDbEntity
  8
1
100
AcDbLine
 10
1875.000004399358
 20
1450.000005636598
 30
0.0
 11
1875.000004399358
 21
1675.000005636598
 31
0.0
  0
LINE
  5
387E
330
18
100
AcDbEntity
  8
1
100
AcDbLine
 10
1850.000004399358
 20
1600.000005636598
 30
0.0
 11
1850.000004399358
 21
1650.000005636598
 31
0.0
  0
LINE
  5
387F
330
18
100
AcDbEntity
  8
1
100
AcDbLine
 10
1750.000004399358
 20
1650.000005636598
 30
0.0
 11
1750.000004399358
 21
1600.000005636598
 31
0.0
  0
LINE
  5
3880
330
18
100
AcDbEntity
  8
1
100
AcDbLine
 10
1725.000004399358
 20
1675.000005636598
 30
0.0
 11
1725.000004399358
 21
1450.000005636598
 31
0.0
  0
LINE
  5
3881
330
18
100
AcDbEntity
  8
1
100
AcDbLine
 10
1750.000004399358
 20
1600.000005636598
 30
0.0
 11
1850.000004399358
 21
1600.000005636598
 31
0.0
  0
LINE
  5
3882
330
18
100
AcDbEntity
  8
1
100
AcDbLine
 10
1725.000004399358
 20
1450.000005636598
 30
0.0
 11
1875.000004399358
 21
1450.000005636598
 31
0.0
  0
LINE
  5
3883
330
18
100
AcDbEntity
  8
1
100
AcDbLine
 10
1850.000004399358
 20
1650.000005636598
 30
0.0
 11
1750.000004399358
 21
1650.000005636598
 31
0.0
  0
LINE
  5
3884
330
18
100
AcDbEntity
  8
1
100
AcDbLine
 10
1875.000004399358
 20
1675.000005636598
 30
0.0
 11
1725.000004399358
 21
1675.000005636598
 31
0.0
  0
LINE
  5
3885
330
18
100
AcDbEntity
  8
1
100
AcDbLine
 10
2575.000004399358
 20
1200.000005636598
 30
0.0
 11
2425.000004399358
 21
1200.000005636598
 31
0.0
  0
LINE
  5
3886
330
18
100
AcDbEntity
  8
1
100
AcDbLine
 10
2425.000004399358
 20
1100.000005636599
 30
0.0
 11
2575.000004399358
 21
1100.000005636599
 31
0.0
  0
LINE
  5
3887
330
18
100
AcDbEntity
  8
1
100
AcDbLine
 10
2375.000004399358
 20
1100.000005636599
 30
0.0
 11
2375.000004399358
 21
1225.000005636599
 31
0.0
  0
LINE
  5
3888
330
18
100
AcDbEntity
  8
1
100
AcDbLine
 10
2425.000004399358
 20
1200.000005636598
 30
0.0
 11
2425.000004399358
 21
1100.000005636599
 31
0.0
  0
LINE
  5
3889
330
18
100
AcDbEntity
  8
1
100
AcDbLine
 10
2425.000004399358
 20
1225.000005636599
 30
0.0
 11
2425.000004399358
 21
1100.000005636599
 31
0.0
  0
LINE
  5
388A
330
18
100
AcDbEntity
  8
1
100
AcDbLine
 10
2425.000004399358
 20
1100.000005636599
 30
0.0
 11
2375.000004399358
 21
1100.000005636599
 31
0.0
  0
LINE
  5
388B
330
18
100
AcDbEntity
  8
1
100
AcDbLine
 10
2385.000004399358
 20
1175.000005636599
 30
0.0
 11
2410.000004399359
 21
1175.000005636599
 31
0.0
  0
LINE
  5
388C
330
18
100
AcDbEntity
  8
1
100
AcDbLine
 10
2375.000004399358
 20
1225.000005636599
 30
0.0
 11
2425.000004399358
 21
1225.000005636599
 31
0.0
  0
LINE
  5
388D
330
18
100
AcDbEntity
  8
1
100
AcDbLine
 10
2385.000004399358
 20
1200.000005636598
 30
0.0
 11
2410.000004399359
 21
1200.000005636598
 31
0.0
  0
LINE
  5
388E
330
18
100
AcDbEntity
  8
1
100
AcDbLine
 10
2575.000004399358
 20
1100.000005636599
 30
0.0
 11
2575.000004399358
 21
1200.000005636598
 31
0.0
  0
LINE
  5
388F
330
18
100
AcDbEntity
  8
1
100
AcDbLine
 10
2550.000004399358
 20
1175.000005636599
 30
0.0
 11
2450.000004399358
 21
1175.000005636599
 31
0.0
  0
LINE
  5
3890
330
18
100
AcDbEntity
  8
1
100
AcDbLine
 10
2450.000004399358
 20
1125.000005636598
 30
0.0
 11
2550.000004399358
 21
1125.000005636598
 31
0.0
  0
LINE
  5
3891
330
18
100
AcDbEntity
  8
1
100
AcDbLine
 10
2450.000004399358
 20
1175.000005636599
 30
0.0
 11
2450.000004399358
 21
1125.000005636598
 31
0.0
  0
LINE
  5
3892
330
18
100
AcDbEntity
  8
1
100
AcDbLine
 10
2550.000004399358
 20
1125.000005636598
 30
0.0
 11
2550.000004399358
 21
1175.000005636599
 31
0.0
  0
LINE
  5
38AA
330
18
100
AcDbEntity
  8
1
370
    35
100
AcDbLine
 10
1825.0
 20
612.5
 30
0.0
 11
2525.0
 21
612.5
 31
0.0
  0
LINE
  5
38AB
330
18
100
AcDbEntity
  8
1
100
AcDbLine
 10
1637.5
 20
687.5
 30
0.0
 11
1637.5
 21
737.5
 31
0.0
  0
ARC
  5
38AC
330
18
100
AcDbEntity
  8
1
100
AcDbCircle
 10
1650.0
 20
712.5000000000002
 30
0.0
 40
25.0
100
AcDbArc
 50
270.0
 51
90.0
  0
LINE
  5
38AD
330
18
100
AcDbEntity
  8
1
100
AcDbLine
 10
1650.0
 20
687.5
 30
0.0
 11
1637.5
 21
687.5
 31
0.0
  0
LINE
  5
38AE
330
18
100
AcDbEntity
  8
1
100
AcDbLine
 10
1612.5
 20
712.5
 30
0.0
 11
1637.5
 21
712.5
 31
0.0
  0
LINE
  5
38AF
330
18
100
AcDbEntity
  8
1
100
AcDbLine
 10
1637.5
 20
700.0
 30
0.0
 11
1612.5
 21
700.0
 31
0.0
  0
LINE
  5
38B0
330
18
100
AcDbEntity
  8
1
100
AcDbLine
 10
1637.5
 20
737.5
 30
0.0
 11
1650.0
 21
737.5
 31
0.0
  0
LINE
  5
38B1
330
18
100
AcDbEntity
  8
1
100
AcDbLine
 10
1637.5
 20
725.0
 30
0.0
 11
1612.5
 21
725.0
 31
0.0
  0
TEXT
  5
38B2
330
18
100
AcDbEntity
  8
1
100
AcDbText
 10
1749.033333924099
 20
1680.000003254851
 30
0.0
 40
40.0
  1
ルーター
 41
0.7
  7
M7
 72
     1
 11
1812.500000590765
 21
1700.000003254851
 31
0.0
100
AcDbText
 73
     2
  0
TEXT
  5
38B3
330
18
100
AcDbEntity
  8
1
100
AcDbText
 10
2063.966667257432
 20
805.0000032548513
 30
0.0
 40
40.0
  1
サーバ
 41
0.7
  7
M7
 72
     1
 11
2112.500000590765
 21
825.0000032548514
 31
0.0
100
AcDbText
 73
     2
  0
LINE
  5
38B4
330
18
100
AcDbEntity
  8
WAKU-MOJI
  6
Continuous
100
AcDbLine
 10
2137.500006578056
 20
1012.50000085728
 30
0.0
 11
2137.500006578056
 21
987.5000008572806
 31
0.0
  0
LINE
  5
38B5
330
18
100
AcDbEntity
  8
WAKU-MOJI
  6
Continuous
100
AcDbLine
 10
2162.500006578056
 20
987.5000008572806
 30
0.0
 11
2162.500006578056
 21
1012.50000085728
 31
0.0
  0
LINE
  5
38B6
330
18
100
AcDbEntity
  8
WAKU-MOJI
  6
Continuous
100
AcDbLine
 10
2137.500006578056
 20
987.5000008572806
 30
0.0
 11
2162.500006578056
 21
987.5000008572806
 31
0.0
  0
LINE
  5
38B7
330
18
100
AcDbEntity
  8
WAKU-MOJI
  6
Continuous
100
AcDbLine
 10
2162.500006578056
 20
1012.50000085728
 30
0.0
 11
2137.500006578056
 21
1012.50000085728
 31
0.0
  0
LINE
  5
38B8
330
18
100
AcDbEntity
  8
1
370
    35
100
AcDbLine
 10
1425.0
 20
775.0
 30
0.0
 11
1500.0
 21
775.0
 31
0.0
  0
LINE
  5
38B9
330
18
100
AcDbEntity
  8
1
100
AcDbLine
 10
1387.5
 20
750.0
 30
0.0
 11
1387.5
 21
800.0
 31
0.0
  0
ARC
  5
38BA
330
18
100
AcDbEntity
  8
1
100
AcDbCircle
 10
1400.0
 20
775.0000000000002
 30
0.0
 40
25.0
100
AcDbArc
 50
270.0
 51
90.0
  0
LINE
  5
38BB
330
18
100
AcDbEntity
  8
1
100
AcDbLine
 10
1362.5
 20
775.0
 30
0.0
 11
1387.5
 21
775.0
 31
0.0
  0
LINE
  5
38BC
330
18
100
AcDbEntity
  8
1
100
AcDbLine
 10
1387.5
 20
762.5
 30
0.0
 11
1362.5
 21
762.5
 31
0.0
  0
LINE
  5
38BD
330
18
100
AcDbEntity
  8
1
100
AcDbLine
 10
1400.0
 20
750.0
 30
0.0
 11
1387.5
 21
750.0
 31
0.0
  0
LINE
  5
38BE
330
18
100
AcDbEntity
  8
1
100
AcDbLine
 10
1387.5
 20
787.5
 30
0.0
 11
1362.5
 21
787.5
 31
0.0
  0
LINE
  5
38BF
330
18
100
AcDbEntity
  8
1
100
AcDbLine
 10
1387.5
 20
800.0
 30
0.0
 11
1400.0
 21
800.0
 31
0.0
  0
LWPOLYLINE
  5
38C0
330
18
100
AcDbEntity
  8
1
100
AcDbPolyline
 90
        4
 70
     1
 43
0.0
 10
1500.0
 20
850.0
 10
1600.0
 20
850.0
 10
1600.0
 20
700.0
 10
1500.0
 20
700.0
  0
TEXT
  5
38C1
330
18
100
AcDbEntity
  8
1
100
AcDbText
 10
1512.666667257432
 20
655.0000032548514
 30
0.0
 40
40.0
  1
UPS
 41
0.7
  7
M7
 72
     1
 11
1550.000000590766
 21
675.0000032548514
 31
0.0
100
AcDbText
 73
     2
  0
LINE
  5
38C2
330
18
100
AcDbEntity
  8
WAKU-MOJI
  6
Continuous
100
AcDbLine
 10
2300.000006578057
 20
762.5000008572806
 30
0.0
 11
2300.000006578057
 21
737.5000008572806
 31
0.0
  0
LINE
  5
38C3
330
18
100
AcDbEntity
  8
WAKU-MOJI
  6
Continuous
100
AcDbLine
 10
2325.000006578056
 20
737.5000008572806
 30
0.0
 11
2325.000006578056
 21
762.5000008572806
 31
0.0
  0
LINE
  5
38C4
330
18
100
AcDbEntity
  8
WAKU-MOJI
  6
Continuous
100
AcDbLine
 10
2300.000006578057
 20
737.5000008572806
 30
0.0
 11
2325.000006578056
 21
737.5000008572806
 31
0.0
  0
LINE
  5
38C5
330
18
100
AcDbEntity
  8
WAKU-MOJI
  6
Continuous
100
AcDbLine
 10
2325.000006578056
 20
762.5000008572806
 30
0.0
 11
2300.000006578057
 21
762.5000008572806
 31
0.0
  0
LINE
  5
38C9
330
18
100
AcDbEntity
  8
1
370
    30
100
AcDbLine
 10
2050.0
 20
1062.5
 30
0.0
 11
2050.0
 21
1500.0
 31
0.0
  0
LINE
  5
38CA
330
18
100
AcDbEntity
  8
WAKU-MOJI
  6
Continuous
100
AcDbLine
 10
2062.500006578056
 20
1062.50000085728
 30
0.0
 11
2037.500006578056
 21
1062.50000085728
 31
0.0
  0
LINE
  5
38CB
330
18
100
AcDbEntity
  8
WAKU-MOJI
  6
Continuous
100
AcDbLine
 10
2037.500006578056
 20
1037.50000085728
 30
0.0
 11
2062.500006578056
 21
1037.50000085728
 31
0.0
  0
LINE
  5
38CC
330
18
100
AcDbEntity
  8
WAKU-MOJI
  6
Continuous
100
AcDbLine
 10
2062.500006578056
 20
1037.50000085728
 30
0.0
 11
2062.500006578056
 21
1062.50000085728
 31
0.0
  0
LINE
  5
38CD
330
18
100
AcDbEntity
  8
WAKU-MOJI
  6
Continuous
100
AcDbLine
 10
2037.500006578056
 20
1062.50000085728
 30
0.0
 11
2037.500006578056
 21
1037.50000085728
 31
0.0
  0
LINE
  5
38D0
330
18
100
AcDbEntity
  8
1
100
AcDbLine
 10
1387.5
 20
987.5
 30
0.0
 11
1362.5
 21
987.5
 31
0.0
  0
LINE
  5
38D1
330
18
100
AcDbEntity
  8
1
100
AcDbLine
 10
1387.5
 20
962.5
 30
0.0
 11
1362.5
 21
962.5
 31
0.0
  0
LINE
  5
38D2
330
18
100
AcDbEntity
  8
1
100
AcDbLine
 10
1362.5
 20
975.0
 30
0.0
 11
1387.5
 21
975.0
 31
0.0
  0
LINE
  5
38D3
330
18
100
AcDbEntity
  8
1
370
    35
100
AcDbLine
 10
1425.0
 20
975.0
 30
0.0
 11
1750.0
 21
975.0
 31
0.0
  0
LINE
  5
38D4
330
18
100
AcDbEntity
  8
1
100
AcDbLine
 10
1387.5
 20
950.0
 30
0.0
 11
1387.5
 21
1000.0
 31
0.0
  0
ARC
  5
38D5
330
18
100
AcDbEntity
  8
1
100
AcDbCircle
 10
1400.0
 20
975.0000000000001
 30
0.0
 40
25.0
100
AcDbArc
 50
270.0
 51
90.0
  0
LINE
  5
38D6
330
18
100
AcDbEntity
  8
1
100
AcDbLine
 10
1400.0
 20
950.0
 30
0.0
 11
1387.5
 21
950.0
 31
0.0
  0
LINE
  5
38D7
330
18
100
AcDbEntity
  8
1
100
AcDbLine
 10
1387.5
 20
1000.0
 30
0.0
 11
1400.0
 21
1000.0
 31
0.0
  0
LINE
  5
38D8
330
18
100
AcDbEntity
  8
1
370
    35
100
AcDbLine
 10
1750.0
 20
975.0
 30
0.0
 11
1750.0
 21
1450.0
 31
0.0
  0
LWPOLYLINE
  5
38DB
330
18
100
AcDbEntity
  8
1
100
AcDbPolyline
 90
        4
 70
     1
 43
0.0
 10
2375.0
 20
1675.0
 10
2425.0
 20
1675.0
 10
2425.0
 20
1575.0
 10
2375.0
 20
1575.0
  0
LINE
  5
38DC
330
18
100
AcDbEntity
  8
1
100
AcDbLine
 10
2412.5
 20
1637.5
 30
0.0
 11
2400.0
 21
1587.5
 31
0.0
  0
HATCH
  5
38DD
330
18
100
AcDbEntity
  8
1
100
AcDbHatch
 10
0.0
 20
0.0
 30
0.0
210
0.0
220
0.0
230
1.0
  2
ANSI31
 70
     0
 71
     0
 91
        2
 92
        7
 72
     0
 73
     1
 93
        3
 10
2400.0
 20
1587.5
 10
2403.125
 20
1600.0
 10
2387.5
 20
1600.0
 97
        0
 92
        7
 72
     0
 73
     1
 93
        3
 10
2412.5
 20
1600.0
 10
2403.125
 20
1600.0
 10
2400.0
 20
1587.5
 97
        0
 75
     0
 76
     1
 52
0.0
 41
0.5
 77
     0
 78
     1
 53
45.0
 43
1900.0
 44
475.0
 45
-1.122532015133643
 46
1.122532015133644
 79
     0
 47
0.668826438124856
 98
        2
 10
2397.793164630124
 20
1594.766098882295
 10
2405.155746740402
 20
1596.103754806577
  0
LINE
  5
38DE
330
18
100
AcDbEntity
  8
1
100
AcDbLine
 10
2400.0
 20
1587.5
 30
0.0
 11
2412.5
 21
1600.0
 31
0.0
  0
LINE
  5
38DF
330
18
100
AcDbEntity
  8
1
100
AcDbLine
 10
2387.5
 20
1600.0
 30
0.0
 11
2412.5
 21
1600.0
 31
0.0
  0
LINE
  5
38E0
330
18
100
AcDbEntity
  8
1
100
AcDbLine
 10
2400.0
 20
1587.5
 30
0.0
 11
2387.5
 21
1600.0
 31
0.0
  0
LINE
  5
38E1
330
18
100
AcDbEntity
  8
1
100
AcDbLine
 10
2400.0
 20
1662.5
 30
0.0
 11
2387.5
 21
1612.5
 31
0.0
  0
LINE
  5
38E2
330
18
100
AcDbEntity
  8
1
100
AcDbLine
 10
2387.5
 20
1612.5
 30
0.0
 11
2412.5
 21
1637.5
 31
0.0
  0
LINE
  5
38E3
330
18
100
AcDbEntity
  8
1
  6
DASHED
100
AcDbLine
 10
1800.0
 20
1425.0
 30
0.0
 11
1925.0
 21
1425.0
 31
0.0
  0
LINE
  5
38E4
330
18
100
AcDbEntity
  8
1
  6
DASHED
100
AcDbLine
 10
2400.0
 20
1400.0
 30
0.0
 11
2400.0
 21
1575.0
 31
0.0
  0
LINE
  5
38E5
330
18
100
AcDbEntity
  8
1
  6
DASHED
100
AcDbLine
 10
1800.0
 20
1425.0
 30
0.0
 11
1800.0
 21
1450.0
 31
0.0
  0
LINE
  5
38E7
330
18
100
AcDbEntity
  8
1
100
AcDbLine
 10
1637.5
 20
812.5
 30
0.0
 11
1637.5
 21
862.5
 31
0.0
  0
ARC
  5
38E8
330
18
100
AcDbEntity
  8
1
100
AcDbCircle
 10
1650.0
 20
837.5000000000001
 30
0.0
 40
25.0
100
AcDbArc
 50
270.0
 51
90.0
  0
LINE
  5
38E9
330
18
100
AcDbEntity
  8
1
100
AcDbLine
 10
1612.5
 20
837.5
 30
0.0
 11
1637.5
 21
837.5
 31
0.0
  0
LINE
  5
38EA
330
18
100
AcDbEntity
  8
1
100
AcDbLine
 10
1637.5
 20
850.0
 30
0.0
 11
1612.5
 21
850.0
 31
0.0
  0
LINE
  5
38EB
330
18
100
AcDbEntity
  8
1
100
AcDbLine
 10
1637.5
 20
825.0
 30
0.0
 11
1612.5
 21
825.0
 31
0.0
  0
LINE
  5
38EC
330
18
100
AcDbEntity
  8
1
100
AcDbLine
 10
1650.0
 20
812.5
 30
0.0
 11
1637.5
 21
812.5
 31
0.0
  0
LINE
  5
38ED
330
18
100
AcDbEntity
  8
1
100
AcDbLine
 10
1637.5
 20
862.5
 30
0.0
 11
1650.0
 21
862.5
 31
0.0
  0
LINE
  5
38EE
330
18
100
AcDbEntity
  8
1
370
    35
100
AcDbLine
 10
1925.0
 20
1000.0
 30
0.0
 11
1825.0
 21
1000.0
 31
0.0
  0
LWPOLYLINE
  5
38F1
330
18
100
AcDbEntity
  8
1
100
AcDbPolyline
 90
        4
 70
     1
 43
0.0
 10
2225.0
 20
800.0
 10
2275.0
 20
800.0
 10
2275.0
 20
700.0
 10
2225.0
 20
700.0
  0
LINE
  5
38F3
330
18
100
AcDbEntity
  8
1
100
AcDbLine
 10
2250.0
 20
712.5
 30
0.0
 11
2262.5
 21
725.0
 31
0.0
  0
LINE
  5
38F4
330
18
100
AcDbEntity
  8
1
100
AcDbLine
 10
2237.5
 20
725.0
 30
0.0
 11
2262.5
 21
725.0
 31
0.0
  0
HATCH
  5
38F7
330
18
100
AcDbEntity
  8
1
100
AcDbHatch
 10
0.0
 20
0.0
 30
0.0
210
0.0
220
0.0
230
1.0
  2
ANSI31
 70
     0
 71
     0
 91
        2
 92
        7
 72
     0
 73
     1
 93
        3
 10
2250.0
 20
712.5
 10
2253.125
 20
725.0
 10
2237.5
 20
725.0
 97
        0
 92
        7
 72
     0
 73
     1
 93
        3
 10
2262.5
 20
725.0
 10
2253.125
 20
725.0
 10
2250.0
 20
712.5
 97
        0
 75
     0
 76
     1
 52
0.0
 41
0.5
 77
     0
 78
     1
 53
45.0
 43
1750.0
 44
-400.0
 45
-1.122532015133643
 46
1.122532015133644
 79
     0
 47
0.668826438124856
 98
        2
 10
2247.793164630123
 20
719.7660988822954
 10
2255.155746740402
 20
721.1037548065769
  0
LINE
  5
38F8
330
18
100
AcDbEntity
  8
1
100
AcDbLine
 10
2250.0
 20
712.5
 30
0.0
 11
2237.5
 21
725.0
 31
0.0
  0
LINE
  5
38F9
330
18
100
AcDbEntity
  8
1
100
AcDbLine
 10
2250.0
 20
725.0
 30
0.0
 11
2250.0
 21
787.5
 31
0.0
  0
LINE
  5
38FF
330
18
100
AcDbEntity
  8
1
100
AcDbLine
 10
2475.0
 20
1650.0
 30
0.0
 11
2475.0
 21
1600.0
 31
0.0
  0
LINE
  5
3900
330
18
100
AcDbEntity
  8
1
100
AcDbLine
 10
2475.0
 20
1600.0
 30
0.0
 11
2600.0
 21
1600.0
 31
0.0
  0
LINE
  5
3901
330
18
100
AcDbEntity
  8
1
100
AcDbLine
 10
2600.0
 20
1600.0
 30
0.0
 11
2600.0
 21
1650.0
 31
0.0
  0
LINE
  5
3902
330
18
100
AcDbEntity
  8
1
100
AcDbLine
 10
2600.0
 20
1650.0
 30
0.0
 11
2475.0
 21
1650.0
 31
0.0
  0
TEXT
  5
3903
330
18
100
AcDbEntity
  8
1
100
AcDbText
 10
2490.833337732692
 20
1605.000005636598
 30
0.0
 40
40.0
  1
保安器
 41
0.7
  7
M7
 72
     1
 11
2537.500004399358
 21
1625.000005636598
 31
0.0
100
AcDbText
 73
     2
  0
LWPOLYLINE
  5
3904
330
18
100
AcDbEntity
  8
1
100
AcDbPolyline
 90
        4
 70
     1
 43
0.0
 10
1900.0
 20
1675.0
 10
1950.0
 20
1675.0
 10
1950.0
 20
1575.0
 10
1900.0
 20
1575.0
  0
LINE
  5
3905
330
18
100
AcDbEntity
  8
1
100
AcDbLine
 10
1925.0
 20
1600.0
 30
0.0
 11
1925.0
 21
1662.5
 31
0.0
  0
LINE
  5
3906
330
18
100
AcDbEntity
  8
1
100
AcDbLine
 10
1925.0
 20
1587.5
 30
0.0
 11
1937.5
 21
1600.0
 31
0.0
  0
HATCH
  5
3907
330
18
100
AcDbEntity
  8
1
100
AcDbHatch
 10
0.0
 20
0.0
 30
0.0
210
0.0
220
0.0
230
1.0
  2
ANSI31
 70
     0
 71
     0
 91
        2
 92
        7
 72
     0
 73
     1
 93
        3
 10
1925.0
 20
1587.5
 10
1928.125
 20
1600.0
 10
1912.5
 20
1600.0
 97
        0
 92
        7
 72
     0
 73
     1
 93
        3
 10
1937.5
 20
1600.0
 10
1928.125
 20
1600.0
 10
1925.0
 20
1587.5
 97
        0
 75
     0
 76
     1
 52
0.0
 41
0.5
 77
     0
 78
     1
 53
45.0
 43
1425.0
 44
475.0
 45
-1.122532015133643
 46
1.122532015133644
 79
     0
 47
0.668826438124856
 98
        2
 10
1922.793164630124
 20
1594.766098882295
 10
1930.155746740402
 20
1596.103754806577
  0
LINE
  5
3908
330
18
100
AcDbEntity
  8
1
100
AcDbLine
 10
1925.0
 20
1587.5
 30
0.0
 11
1912.5
 21
1600.0
 31
0.0
  0
LINE
  5
3909
330
18
100
AcDbEntity
  8
1
100
AcDbLine
 10
1912.5
 20
1600.0
 30
0.0
 11
1937.5
 21
1600.0
 31
0.0
  0
LINE
  5
390B
330
18
100
AcDbEntity
  8
1
100
AcDbLine
 10
2000.000006578056
 20
1637.50000085728
 30
0.0
 11
1975.000006578056
 21
1637.50000085728
 31
0.0
  0
LINE
  5
390C
330
18
100
AcDbEntity
  8
1
100
AcDbLine
 10
1975.000006578056
 20
1612.50000085728
 30
0.0
 11
2000.000006578056
 21
1612.50000085728
 31
0.0
  0
LINE
  5
390D
330
18
100
AcDbEntity
  8
1
100
AcDbLine
 10
1975.000006578056
 20
1637.50000085728
 30
0.0
 11
1975.000006578056
 21
1612.50000085728
 31
0.0
  0
LINE
  5
390E
330
18
100
AcDbEntity
  8
1
100
AcDbLine
 10
2000.000006578056
 20
1612.50000085728
 30
0.0
 11
2000.000006578056
 21
1637.50000085728
 31
0.0
  0
CIRCLE
  5
3910
330
18
100
AcDbEntity
  8
1
100
AcDbCircle
 10
2250.0
 20
1625.0
 30
0.0
 40
30.0
  0
CIRCLE
  5
3911
330
18
100
AcDbEntity
  8
1
100
AcDbCircle
 10
2250.0
 20
1625.0
 30
0.0
 40
15.0
  0
LINE
  5
3912
330
18
100
AcDbEntity
  8
1
370
    30
100
AcDbLine
 10
2250.0
 20
1625.0
 30
0.0
 11
2375.0
 21
1625.0
 31
0.0
  0
LINE
  5
3913
330
18
100
AcDbEntity
  8
1
370
    30
100
AcDbLine
 10
2425.0
 20
1625.0
 30
0.0
 11
2475.0
 21
1625.0
 31
0.0
  0
LINE
  5
3914
330
18
100
AcDbEntity
  8
1
  6
DASHED
100
AcDbLine
 10
1925.0
 20
1425.0
 30
0.0
 11
1925.0
 21
1450.0
 31
0.0
  0
LINE
  5
3915
330
18
100
AcDbEntity
  8
1
100
AcDbLine
 10
1975.000006578056
 20
2000.00000085728
 30
0.0
 11
1825.000006578056
 21
2000.00000085728
 31
0.0
  0
LINE
  5
3916
330
18
100
AcDbEntity
  8
1
100
AcDbLine
 10
1825.000006578056
 20
1900.00000085728
 30
0.0
 11
1975.000006578056
 21
1900.00000085728
 31
0.0
  0
LINE
  5
3917
330
18
100
AcDbEntity
  8
1
100
AcDbLine
 10
1825.000006578056
 20
2000.00000085728
 30
0.0
 11
1825.000006578056
 21
1900.00000085728
 31
0.0
  0
LINE
  5
3918
330
18
100
AcDbEntity
  8
1
100
AcDbLine
 10
1950.000006578056
 20
1975.000000857281
 30
0.0
 11
1850.000006578056
 21
1975.000000857281
 31
0.0
  0
LINE
  5
3919
330
18
100
AcDbEntity
  8
1
100
AcDbLine
 10
1850.000006578056
 20
1925.000000857281
 30
0.0
 11
1950.000006578056
 21
1925.000000857281
 31
0.0
  0
LINE
  5
391A
330
18
100
AcDbEntity
  8
1
100
AcDbLine
 10
1850.000006578056
 20
1975.000000857281
 30
0.0
 11
1850.000006578056
 21
1925.000000857281
 31
0.0
  0
LINE
  5
391B
330
18
100
AcDbEntity
  8
1
100
AcDbLine
 10
1950.000006578056
 20
1925.000000857281
 30
0.0
 11
1950.000006578056
 21
1975.000000857281
 31
0.0
  0
LINE
  5
391C
330
18
100
AcDbEntity
  8
1
100
AcDbLine
 10
1975.000006578056
 20
1900.00000085728
 30
0.0
 11
1975.000006578056
 21
2000.00000085728
 31
0.0
  0
LINE
  5
392F
330
18
100
AcDbEntity
  8
1
370
    30
100
AcDbLine
 10
1975.0
 20
1950.0
 30
0.0
 11
2075.0
 21
1950.0
 31
0.0
  0
ARC
  5
3930
330
18
100
AcDbEntity
  8
1
100
AcDbCircle
 10
2056.249999999999
 20
1950.0
 30
0.0
 40
31.25
100
AcDbArc
 50
306.8698976458439
 51
53.13010235415597
  0
ARC
  5
3931
330
18
100
AcDbEntity
  8
1
100
AcDbCircle
 10
2093.75
 20
1950.0
 30
0.0
 40
31.25
100
AcDbArc
 50
126.869897645844
 51
233.1301023541559
  0
LINE
  5
3932
330
18
100
AcDbEntity
  8
1
100
AcDbLine
 10
2075.0
 20
1975.0
 30
0.0
 11
2325.0
 21
1975.0
 31
0.0
  0
LINE
  5
3933
330
18
100
AcDbEntity
  8
1
100
AcDbLine
 10
2075.0
 20
1925.0
 30
0.0
 11
2325.0
 21
1925.0
 31
0.0
  0
ARC
  5
3934
330
18
100
AcDbEntity
  8
1
100
AcDbCircle
 10
2306.249999999999
 20
1950.0
 30
0.0
 40
31.25
100
AcDbArc
 50
306.8698976458439
 51
53.13010235415597
  0
LINE
  5
3935
330
18
100
AcDbEntity
  8
1
100
AcDbLine
 10
2450.0
 20
1925.0
 30
0.0
 11
2450.0
 21
1987.5
 31
0.0
  0
LWPOLYLINE
  5
3936
330
18
100
AcDbEntity
  8
1
100
AcDbPolyline
 90
        4
 70
     1
 43
0.0
 10
2425.0
 20
2000.0
 10
2475.0
 20
2000.0
 10
2475.0
 20
1900.0
 10
2425.0
 20
1900.0
  0
LINE
  5
3937
330
18
100
AcDbEntity
  8
1
100
AcDbLine
 10
2450.0
 20
1912.5
 30
0.0
 11
2462.5
 21
1925.0
 31
0.0
  0
LINE
  5
3938
330
18
100
AcDbEntity
  8
1
100
AcDbLine
 10
2437.5
 20
1925.0
 30
0.0
 11
2462.5
 21
1925.0
 31
0.0
  0
HATCH
  5
3939
330
18
100
AcDbEntity
  8
1
100
AcDbHatch
 10
0.0
 20
0.0
 30
0.0
210
0.0
220
0.0
230
1.0
  2
ANSI31
 70
     0
 71
     0
 91
        2
 92
        7
 72
     0
 73
     1
 93
        3
 10
2450.0
 20
1912.5
 10
2453.125
 20
1925.0
 10
2437.5
 20
1925.0
 97
        0
 92
        7
 72
     0
 73
     1
 93
        3
 10
2462.5
 20
1925.0
 10
2453.125
 20
1925.0
 10
2450.0
 20
1912.5
 97
        0
 75
     0
 76
     1
 52
0.0
 41
0.5
 77
     0
 78
     1
 53
45.0
 43
1950.0
 44
800.0
 45
-1.122532015133643
 46
1.122532015133644
 79
     0
 47
0.668826438124856
 98
        2
 10
2447.793164630124
 20
1919.766098882295
 10
2455.155746740402
 20
1921.103754806577
  0
LINE
  5
393A
330
18
100
AcDbEntity
  8
1
100
AcDbLine
 10
2450.0
 20
1912.5
 30
0.0
 11
2437.5
 21
1925.0
 31
0.0
  0
LINE
  5
394A
330
18
100
AcDbEntity
  8
1
370
    30
100
AcDbLine
 10
2337.499999999999
 20
1950.0
 30
0.0
 11
2425.0
 21
1950.0
 31
0.0
  0
POLYLINE
  5
394B
330
18
100
AcDbEntity
  8
1
  6
DOT
100
AcDb2dPolyline
 66
     1
 10
0.0
 20
0.0
 30
0.0
 70
     4
 75
     6
  0
VERTEX
  5
394C
330
394B
100
AcDbEntity
  8
1
  6
DOT
100
AcDbVertex
100
AcDb2dVertex
 10
2325.0
 20
1925.0
 30
0.0
 70
    16
  0
VERTEX
  5
3951
330
394B
100
AcDbEntity
  8
1
  6
DOT
100
AcDbVertex
100
AcDb2dVertex
 10
2325.0
 20
1925.0
 30
0.0
 70
     8
  0
VERTEX
  5
3952
330
394B
100
AcDbEntity
  8
1
  6
DOT
100
AcDbVertex
100
AcDb2dVertex
 10
2340.1123046875
 20
1900.341796875
 30
0.0
 70
     8
  0
VERTEX
  5
3953
330
394B
100
AcDbEntity
  8
1
  6
DOT
100
AcDbVertex
100
AcDb2dVertex
 10
2356.8359375
 20
1882.421875
 30
0.0
 70
     8
  0
VERTEX
  5
3954
330
394B
100
AcDbEntity
  8
1
  6
DOT
100
AcDbVertex
100
AcDb2dVertex
 10
2374.4384765625
 20
1870.947265625
 30
0.0
 70
     8
  0
VERTEX
  5
3955
330
394B
100
AcDbEntity
  8
1
  6
DOT
100
AcDbVertex
100
AcDb2dVertex
 10
2392.187499999999
 20
1865.625
 30
0.0
 70
     8
  0
VERTEX
  5
3956
330
394B
100
AcDbEntity
  8
1
  6
DOT
100
AcDbVertex
100
AcDb2dVertex
 10
2409.3505859375
 20
1866.162109375
 30
0.0
 70
     8
  0
VERTEX
  5
3957
330
394B
100
AcDbEntity
  8
1
  6
DOT
100
AcDbVertex
100
AcDb2dVertex
 10
2425.1953125
 20
1872.265625
 30
0.0
 70
     8
  0
VERTEX
  5
3958
330
394B
100
AcDbEntity
  8
1
  6
DOT
100
AcDbVertex
100
AcDb2dVertex
 10
2438.9892578125
 20
1883.642578125
 30
0.0
 70
     8
  0
VERTEX
  5
3959
330
394B
100
AcDbEntity
  8
1
  6
DOT
100
AcDbVertex
100
AcDb2dVertex
 10
2450.0
 20
1900.0
 30
0.0
 70
     8
  0
VERTEX
  5
394D
330
394B
100
AcDbEntity
  8
1
  6
DOT
100
AcDbVertex
100
AcDb2dVertex
 10
2362.5
 20
1850.0
 30
0.0
 70
    16
  0
VERTEX
  5
394E
330
394B
100
AcDbEntity
  8
1
  6
DOT
100
AcDbVertex
100
AcDb2dVertex
 10
2425.0
 20
1850.0
 30
0.0
 70
    16
  0
VERTEX
  5
394F
330
394B
100
AcDbEntity
  8
1
  6
DOT
100
AcDbVertex
100
AcDb2dVertex
 10
2450.0
 20
1900.0
 30
0.0
 70
    16
  0
SEQEND
  5
3950
330
394B
100
AcDbEntity
  8
1
  6
DOT
  0
POLYLINE
  5
395A
330
18
100
AcDbEntity
  8
1
  6
DOT
100
AcDb2dPolyline
 66
     1
 10
0.0
 20
0.0
 30
0.0
 70
     4
 75
     6
  0
VERTEX
  5
395B
330
395A
100
AcDbEntity
  8
1
  6
DOT
100
AcDbVertex
100
AcDb2dVertex
 10
1937.5
 20
1900.0
 30
0.0
 70
    16
  0
VERTEX
  5
395C
330
395A
100
AcDbEntity
  8
1
  6
DOT
100
AcDbVertex
100
AcDb2dVertex
 10
1937.5
 20
1900.0
 30
0.0
 70
     8
  0
VERTEX
  5
395D
330
395A
100
AcDbEntity
  8
1
  6
DOT
100
AcDbVertex
100
AcDb2dVertex
 10
1952.63671875
 20
1875.439453125
 30
0.0
 70
     8
  0
VERTEX
  5
395E
330
395A
100
AcDbEntity
  8
1
  6
DOT
100
AcDbVertex
100
AcDb2dVertex
 10
1969.53125
 20
1858.203125
 30
0.0
 70
     8
  0
VERTEX
  5
395F
330
395A
100
AcDbEntity
  8
1
  6
DOT
100
AcDbVertex
100
AcDb2dVertex
 10
1987.59765625
 20
1848.583984375
 30
0.0
 70
     8
  0
VERTEX
  5
3960
330
395A
100
AcDbEntity
  8
1
  6
DOT
100
AcDbVertex
100
AcDb2dVertex
 10
2006.25
 20
1846.875
 30
0.0
 70
     8
  0
VERTEX
  5
3961
330
395A
100
AcDbEntity
  8
1
  6
DOT
100
AcDbVertex
100
AcDb2dVertex
 10
2024.90234375
 20
1853.369140625
 30
0.0
 70
     8
  0
VERTEX
  5
3962
330
395A
100
AcDbEntity
  8
1
  6
DOT
100
AcDbVertex
100
AcDb2dVertex
 10
2042.96875
 20
1868.359375
 30
0.0
 70
     8
  0
VERTEX
  5
3963
330
395A
100
AcDbEntity
  8
1
  6
DOT
100
AcDbVertex
100
AcDb2dVertex
 10
2059.86328125
 20
1892.138671875
 30
0.0
 70
     8
  0
VERTEX
  5
3964
330
395A
100
AcDbEntity
  8
1
  6
DOT
100
AcDbVertex
100
AcDb2dVertex
 10
2075.0
 20
1925.0
 30
0.0
 70
     8
  0
VERTEX
  5
3965
330
395A
100
AcDbEntity
  8
1
  6
DOT
100
AcDbVertex
100
AcDb2dVertex
 10
1975.0
 20
1825.0
 30
0.0
 70
    16
  0
VERTEX
  5
3966
330
395A
100
AcDbEntity
  8
1
  6
DOT
100
AcDbVertex
100
AcDb2dVertex
 10
2037.5
 20
1825.0
 30
0.0
 70
    16
  0
VERTEX
  5
3967
330
395A
100
AcDbEntity
  8
1
  6
DOT
100
AcDbVertex
100
AcDb2dVertex
 10
2075.0
 20
1925.0
 30
0.0
 70
    16
  0
SEQEND
  5
3968
330
395A
100
AcDbEntity
  8
1
  6
DOT
  0
LINE
  5
3969
330
18
100
AcDbEntity
  8
1
370
    35
100
AcDbLine
 10
1425.0
 20
1050.0
 30
0.0
 11
1675.0
 21
1050.0
 31
0.0
  0
ARC
  5
396A
330
18
100
AcDbEntity
  8
1
100
AcDbCircle
 10
1400.0
 20
1050.0
 30
0.0
 40
25.0
100
AcDbArc
 50
270.0
 51
90.0
  0
LINE
  5
396B
330
18
100
AcDbEntity
  8
1
100
AcDbLine
 10
1387.5
 20
1025.0
 30
0.0
 11
1387.5
 21
1075.0
 31
0.0
  0
LINE
  5
396C
330
18
100
AcDbEntity
  8
1
100
AcDbLine
 10
1362.5
 20
1050.0
 30
0.0
 11
1387.5
 21
1050.0
 31
0.0
  0
LINE
  5
396D
330
18
100
AcDbEntity
  8
1
100
AcDbLine
 10
1387.5
 20
1037.5
 30
0.0
 11
1362.5
 21
1037.5
 31
0.0
  0
LINE
  5
396E
330
18
100
AcDbEntity
  8
1
100
AcDbLine
 10
1400.0
 20
1025.0
 30
0.0
 11
1387.5
 21
1025.0
 31
0.0
  0
LINE
  5
396F
330
18
100
AcDbEntity
  8
1
100
AcDbLine
 10
1387.5
 20
1062.5
 30
0.0
 11
1362.5
 21
1062.5
 31
0.0
  0
LINE
  5
3970
330
18
100
AcDbEntity
  8
1
100
AcDbLine
 10
1387.5
 20
1075.0
 30
0.0
 11
1400.0
 21
1075.0
 31
0.0
  0
LINE
  5
3971
330
18
100
AcDbEntity
  8
1
370
    35
100
AcDbLine
 10
1675.0
 20
1050.0
 30
0.0
 11
1675.0
 21
1950.0
 31
0.0
  0
LINE
  5
3972
330
18
100
AcDbEntity
  8
1
370
    35
100
AcDbLine
 10
1675.0
 20
1950.0
 30
0.0
 11
1825.0
 21
1950.0
 31
0.0
  0
TEXT
  5
3973
330
18
100
AcDbEntity
  8
1
100
AcDbText
 10
1876.666671066025
 20
2017.500005636598
 30
0.0
 40
40.0
  1
TV
 41
0.7
  7
M7
 72
     1
 11
1900.000004399358
 21
2037.500005636598
 31
0.0
100
AcDbText
 73
     2
  0
HATCH
  5
3974
330
18
100
AcDbEntity
  8
1
100
AcDbHatch
 10
0.0
 20
0.0
 30
0.0
210
0.0
220
0.0
230
1.0
  2
ANSI31
 70
     0
 71
     0
 91
        2
 92
        7
 72
     0
 73
     1
 93
        3
 10
1475.0
 20
1462.5
 10
1478.125
 20
1475.0
 10
1462.5
 20
1475.0
 97
        0
 92
        7
 72
     0
 73
     1
 93
        3
 10
1487.5
 20
1475.0
 10
1478.125
 20
1475.0
 10
1475.0
 20
1462.5
 97
        0
 75
     0
 76
     1
 52
0.0
 41
0.5
 77
     0
 78
     1
 53
45.0
 43
975.0
 44
350.0
 45
-1.122532015133643
 46
1.122532015133644
 79
     0
 47
0.668826438124856
 98
        2
 10
1472.793164630123
 20
1469.766098882295
 10
1480.155746740401
 20
1471.103754806577
  0
LWPOLYLINE
  5
3975
330
18
100
AcDbEntity
  8
1
100
AcDbPolyline
 90
        4
 70
     1
 43
0.0
 10
1450.0
 20
1550.0
 10
1500.0
 20
1550.0
 10
1500.0
 20
1450.0
 10
1450.0
 20
1450.0
  0
LINE
  5
3976
330
18
100
AcDbEntity
  8
1
100
AcDbLine
 10
1462.5
 20
1475.0
 30
0.0
 11
1487.5
 21
1475.0
 31
0.0
  0
LINE
  5
3977
330
18
100
AcDbEntity
  8
1
100
AcDbLine
 10
1475.0
 20
1462.5
 30
0.0
 11
1487.5
 21
1475.0
 31
0.0
  0
LINE
  5
3978
330
18
100
AcDbEntity
  8
1
100
AcDbLine
 10
1475.0
 20
1475.0
 30
0.0
 11
1475.0
 21
1537.5
 31
0.0
  0
LINE
  5
3979
330
18
100
AcDbEntity
  8
1
100
AcDbLine
 10
1475.0
 20
1462.5
 30
0.0
 11
1462.5
 21
1475.0
 31
0.0
  0
LINE
  5
397A
330
18
100
AcDbEntity
  8
1
370
    35
100
AcDbLine
 10
1475.0
 20
1450.0
 30
0.0
 11
1475.0
 21
1400.0
 31
0.0
  0
LINE
  5
397B
330
18
100
AcDbEntity
  8
1
  6
DASHED
100
AcDbLine
 10
1500.0
 20
1500.0
 30
0.0
 11
1550.0
 21
1500.0
 31
0.0
  0
LINE
  5
397C
330
18
100
AcDbEntity
  8
1
  6
DASHED
100
AcDbLine
 10
1550.0
 20
1400.0
 30
0.0
 11
1550.0
 21
1475.0
 31
0.0
  0
LINE
  5
397D
330
18
100
AcDbEntity
  8
1
  6
DASHED
100
AcDbLine
 10
1500.0
 20
1500.0
 30
0.0
 11
1550.0
 21
1474.999999999999
 31
0.0
  0
TEXT
  5
397E
330
18
100
AcDbEntity
  8
1
100
AcDbText
 10
1482.633333924099
 20
1330.000003254851
 30
0.0
 40
40.0
  1
機器
 41
0.7
  7
M7
 72
     1
 11
1512.500000590766
 21
1350.000003254851
 31
0.0
100
AcDbText
 73
     2
  0
LINE
  5
397F
330
18
100
AcDbEntity
  8
WAKU-MOJI
  6
Continuous
100
AcDbLine
 10
2112.500006578057
 20
1062.50000085728
 30
0.0
 11
2087.500006578057
 21
1062.50000085728
 31
0.0
  0
LINE
  5
3980
330
18
100
AcDbEntity
  8
WAKU-MOJI
  6
Continuous
100
AcDbLine
 10
2087.500006578057
 20
1037.50000085728
 30
0.0
 11
2112.500006578057
 21
1037.50000085728
 31
0.0
  0
LINE
  5
3981
330
18
100
AcDbEntity
  8
WAKU-MOJI
  6
Continuous
100
AcDbLine
 10
2087.500006578057
 20
1062.50000085728
 30
0.0
 11
2087.500006578057
 21
1037.50000085728
 31
0.0
  0
LINE
  5
3982
330
18
100
AcDbEntity
  8
WAKU-MOJI
  6
Continuous
100
AcDbLine
 10
2112.500006578057
 20
1037.50000085728
 30
0.0
 11
2112.500006578057
 21
1062.50000085728
 31
0.0
  0
LINE
  5
3983
330
18
100
AcDbEntity
  8
1
370
    30
100
AcDbLine
 10
2100.0
 20
1062.5
 30
0.0
 11
2100.0
 21
1150.0
 31
0.0
  0
LINE
  5
3984
330
18
100
AcDbEntity
  8
1
370
    30
100
AcDbLine
 10
2100.0
 20
1150.0
 30
0.0
 11
2250.0
 21
1150.0
 31
0.0
  0
LINE
  5
3985
330
18
100
AcDbEntity
  8
1
370
    30
100
AcDbLine
 10
2162.5
 20
1000.0
 30
0.0
 11
2425.0
 21
1000.0
 31
0.0
  0
LINE
  5
3986
330
18
100
AcDbEntity
  8
1
370
    30
100
AcDbLine
 10
2425.0
 20
1000.0
 30
0.0
 11
2425.0
 21
750.0
 31
0.0
  0
LINE
  5
3987
330
18
100
AcDbEntity
  8
1
370
    30
100
AcDbLine
 10
2425.0
 20
750.0
 30
0.0
 11
2325.0
 21
750.0
 31
0.0
  0
LINE
  5
3988
330
18
100
AcDbEntity
  8
WAKU-MOJI
  6
Continuous
100
AcDbLine
 10
2250.000006578056
 20
1137.50000085728
 30
0.0
 11
2275.000006578057
 21
1137.50000085728
 31
0.0
  0
LINE
  5
3989
330
18
100
AcDbEntity
  8
WAKU-MOJI
  6
Continuous
100
AcDbLine
 10
2275.000006578057
 20
1162.50000085728
 30
0.0
 11
2250.000006578056
 21
1162.50000085728
 31
0.0
  0
LINE
  5
398A
330
18
100
AcDbEntity
  8
WAKU-MOJI
  6
Continuous
100
AcDbLine
 10
2250.000006578056
 20
1162.50000085728
 30
0.0
 11
2250.000006578056
 21
1137.50000085728
 31
0.0
  0
LINE
  5
398B
330
18
100
AcDbEntity
  8
WAKU-MOJI
  6
Continuous
100
AcDbLine
 10
2275.000006578057
 20
1137.50000085728
 30
0.0
 11
2275.000006578057
 21
1162.50000085728
 31
0.0
  0
LINE
  5
398C
330
18
100
AcDbEntity
  8
1
  6
DASHED
100
AcDbLine
 10
2250.0
 20
650.0
 30
0.0
 11
2250.0
 21
700.0
 31
0.0
  0
LINE
  5
398D
330
18
100
AcDbEntity
  8
1
  6
DASHED
100
AcDbLine
 10
2150.0
 20
650.0
 30
0.0
 11
2150.0
 21
700.0
 31
0.0
  0
LINE
  5
398E
330
18
100
AcDbEntity
  8
1
  6
DASHED
100
AcDbLine
 10
2150.0
 20
650.0
 30
0.0
 11
2250.0
 21
650.0
 31
0.0
  0
LINE
  5
398F
330
18
100
AcDbEntity
  8
1
370
    35
100
AcDbLine
 10
2525.0
 20
1100.0
 30
0.0
 11
2525.0
 21
612.5
 31
0.0
  0
LINE
  5
3992
330
18
100
AcDbEntity
  8
1
370
    35
100
AcDbLine
 10
1825.0
 20
612.5
 30
0.0
 11
1825.0
 21
712.5
 31
0.0
  0
LINE
  5
3993
330
18
100
AcDbEntity
  8
1
370
    35
100
AcDbLine
 10
1825.0
 20
712.5
 30
0.0
 11
1675.0
 21
712.5
 31
0.0
  0
LINE
  5
3994
330
18
100
AcDbEntity
  8
1
370
    35
100
AcDbLine
 10
1825.0
 20
1000.0
 30
0.0
 11
1825.0
 21
837.5
 31
0.0
  0
LINE
  5
3995
330
18
100
AcDbEntity
  8
1
370
    35
100
AcDbLine
 10
1825.0
 20
837.5
 30
0.0
 11
1675.0
 21
837.5
 31
0.0
  0
LINE
  5
3997
330
18
100
AcDbEntity
  8
1
370
    35
100
AcDbLine
 10
900.0
 20
1500.0
 30
0.0
 11
900.0
 21
2375.0
 31
0.0
  0
LINE
  5
3998
330
18
100
AcDbEntity
  8
1
370
    35
100
AcDbLine
 10
900.0
 20
2375.0
 30
0.0
 11
3225.0
 21
2375.0
 31
0.0
  0
LINE
  5
3999
330
18
100
AcDbEntity
  8
1
370
    30
100
AcDbLine
 10
2600.0
 20
1625.0
 30
0.0
 11
2775.0
 21
1625.0
 31
0.0
  0
LINE
  5
399A
330
18
100
AcDbEntity
  8
1
370
    35
100
AcDbLine
 10
3200.0
 20
2325.0
 30
0.0
 11
3225.0
 21
2250.0
 31
0.0
  0
LINE
  5
399B
330
18
100
AcDbEntity
  8
1
370
    35
100
AcDbLine
 10
3225.0
 20
2375.0
 30
0.0
 11
3225.0
 21
2200.0
 31
0.0
  0
LINE
  5
399C
330
18
100
AcDbEntity
  8
1
370
    35
100
AcDbLine
 10
3025.0
 20
2325.0
 30
0.0
 11
3025.0
 21
2300.0
 31
0.0
  0
LWPOLYLINE
  5
399D
330
18
100
AcDbEntity
  8
1
100
AcDbPolyline
 90
        4
 70
     1
 43
0.0
 10
3150.0
 20
2250.0
 10
3800.0
 20
2250.0
 10
3800.0
 20
1650.0
 10
3150.0
 20
1650.0
  0
LINE
  5
399E
330
18
100
AcDbEntity
  8
1
100
AcDbLine
 10
3375.0
 20
1912.5
 30
0.0
 11
3375.0
 21
1862.5
 31
0.0
  0
LINE
  5
399F
330
18
100
AcDbEntity
  8
1
100
AcDbLine
 10
3225.0
 20
1912.5
 30
0.0
 11
3225.0
 21
1862.5
 31
0.0
  0
CIRCLE
  5
39A0
330
18
100
AcDbEntity
  8
1
100
AcDbCircle
 10
3575.0
 20
1687.5
 30
0.0
 40
7.5
  0
LINE
  5
39A1
330
18
100
AcDbEntity
  8
1
100
AcDbLine
 10
3525.0
 20
1700.0
 30
0.0
 11
3625.0
 21
1700.0
 31
0.0
  0
LINE
  5
39A2
330
18
100
AcDbEntity
  8
1
100
AcDbLine
 10
3625.0
 20
1675.0
 30
0.0
 11
3525.0
 21
1675.0
 31
0.0
  0
LINE
  5
39A3
330
18
100
AcDbEntity
  8
1
100
AcDbLine
 10
3525.0
 20
1675.0
 30
0.0
 11
3525.0
 21
1700.0
 31
0.0
  0
CIRCLE
  5
39A4
330
18
100
AcDbEntity
  8
1
100
AcDbCircle
 10
3550.0
 20
1687.5
 30
0.0
 40
7.5
  0
CIRCLE
  5
39A5
330
18
100
AcDbEntity
  8
1
100
AcDbCircle
 10
3600.0
 20
1687.5
 30
0.0
 40
7.5
  0
LINE
  5
39A6
330
18
100
AcDbEntity
  8
1
100
AcDbLine
 10
3625.0
 20
1700.0
 30
0.0
 11
3625.0
 21
1675.0
 31
0.0
  0
LWPOLYLINE
  5
39A7
330
18
100
AcDbEntity
  8
1
100
AcDbPolyline
 90
        4
 70
     1
 43
0.0
 10
3000.0
 20
2100.0
 10
3050.0
 20
2100.0
 10
3050.0
 20
2000.0
 10
3000.0
 20
2000.0
  0
LINE
  5
39A8
330
18
100
AcDbEntity
  8
1
  6
DASHDOT
100
AcDbLine
 10
2950.0
 20
1950.0
 30
0.0
 11
2950.0
 21
2250.0
 31
0.0
  0
LINE
  5
39A9
330
18
100
AcDbEntity
  8
1
  6
DASHDOT
100
AcDbLine
 10
3100.0
 20
2250.0
 30
0.0
 11
3100.0
 21
1950.0
 31
0.0
  0
LINE
  5
39AA
330
18
100
AcDbEntity
  8
1
  6
DASHDOT
100
AcDbLine
 10
3100.0
 20
1950.0
 30
0.0
 11
2950.0
 21
1950.0
 31
0.0
  0
LINE
  5
39AB
330
18
100
AcDbEntity
  8
1
100
AcDbLine
 10
3025.0
 20
1950.0
 30
0.0
 11
3025.0
 21
2000.0
 31
0.0
  0
CIRCLE
  5
39AC
330
18
100
AcDbEntity
  8
1
100
AcDbCircle
 10
3025.0
 20
1950.0
 30
0.0
 40
10.0
  0
LINE
  5
39AD
330
18
100
AcDbEntity
  8
1
100
AcDbLine
 10
3037.5
 20
2062.5
 30
0.0
 11
3025.0
 21
2012.5
 31
0.0
  0
HATCH
  5
39AE
330
18
100
AcDbEntity
  8
1
100
AcDbHatch
 10
0.0
 20
0.0
 30
0.0
210
0.0
220
0.0
230
1.0
  2
ANSI31
 70
     0
 71
     0
 91
        2
 92
        7
 72
     0
 73
     1
 93
        3
 10
3025.0
 20
2012.5
 10
3028.125
 20
2025.0
 10
3012.5
 20
2025.0
 97
        0
 92
        7
 72
     0
 73
     1
 93
        3
 10
3037.5
 20
2025.0
 10
3028.125
 20
2025.0
 10
3025.0
 20
2012.5
 97
        0
 75
     0
 76
     1
 52
0.0
 41
0.5
 77
     0
 78
     1
 53
45.0
 43
2525.0
 44
900.0
 45
-1.122532015133643
 46
1.122532015133644
 79
     0
 47
0.668826438124856
 98
        2
 10
3022.793164630124
 20
2019.766098882295
 10
3030.155746740402
 20
2021.103754806577
  0
LINE
  5
39AF
330
18
100
AcDbEntity
  8
1
100
AcDbLine
 10
3025.0
 20
2012.5
 30
0.0
 11
3037.5
 21
2025.0
 31
0.0
  0
LINE
  5
39B0
330
18
100
AcDbEntity
  8
1
100
AcDbLine
 10
3012.5
 20
2025.0
 30
0.0
 11
3037.5
 21
2025.0
 31
0.0
  0
LINE
  5
39B1
330
18
100
AcDbEntity
  8
1
100
AcDbLine
 10
3025.0
 20
2012.5
 30
0.0
 11
3012.5
 21
2025.0
 31
0.0
  0
LINE
  5
39B2
330
18
100
AcDbEntity
  8
1
100
AcDbLine
 10
3025.0
 20
2087.499999999999
 30
0.0
 11
3012.5
 21
2037.5
 31
0.0
  0
LINE
  5
39B3
330
18
100
AcDbEntity
  8
1
100
AcDbLine
 10
3012.5
 20
2037.5
 30
0.0
 11
3037.5
 21
2062.5
 31
0.0
  0
LINE
  5
39B4
330
18
100
AcDbEntity
  8
1
100
AcDbLine
 10
2987.499995502345
 20
2200.000003026558
 30
0.0
 11
3024.999995502345
 21
2150.000003026558
 31
0.0
  0
LINE
  5
39B5
330
18
100
AcDbEntity
  8
1
  6
DASHDOT
100
AcDbLine
 10
2950.0
 20
2250.0
 30
0.0
 11
3100.0
 21
2250.0
 31
0.0
  0
LINE
  5
39B6
330
18
100
AcDbEntity
  8
1
100
AcDbLine
 10
3012.499995502345
 20
2212.500003026558
 30
0.0
 11
3037.499995502345
 21
2187.500003026558
 31
0.0
  0
LINE
  5
39B7
330
18
100
AcDbEntity
  8
1
100
AcDbLine
 10
3037.499995502345
 20
2212.500003026558
 30
0.0
 11
3012.499995502345
 21
2187.500003026558
 31
0.0
  0
LINE
  5
39B8
330
18
100
AcDbEntity
  8
1
100
AcDbLine
 10
3025.0
 20
2250.0
 30
0.0
 11
3025.0
 21
2200.0
 31
0.0
  0
LINE
  5
39B9
330
18
100
AcDbEntity
  8
1
100
AcDbLine
 10
3025.0
 20
2150.0
 30
0.0
 11
3025.0
 21
2100.0
 31
0.0
  0
LINE
  5
39BA
330
18
100
AcDbEntity
  8
1
100
AcDbLine
 10
3024.999995502345
 20
2150.000003026558
 30
0.0
 11
3024.999995502345
 21
2150.000003026558
 31
0.0
  0
CIRCLE
  5
39BB
330
18
100
AcDbEntity
  8
1
100
AcDbCircle
 10
3025.0
 20
2250.0
 30
0.0
 40
10.0
  0
LINE
  5
39BC
330
18
100
AcDbEntity
  8
1
370
    35
100
AcDbLine
 10
3025.0
 20
2300.0
 30
0.0
 11
3025.0
 21
2250.0
 31
0.0
  0
LINE
  5
39BD
330
18
100
AcDbEntity
  8
1
100
AcDbLine
 10
3225.0
 20
2112.5
 30
0.0
 11
3225.0
 21
2000.0
 31
0.0
  0
LINE
  5
39BE
330
18
100
AcDbEntity
  8
1
100
AcDbLine
 10
3225.0
 20
2050.0
 30
0.0
 11
3375.0
 21
2050.0
 31
0.0
  0
LINE
  5
39BF
330
18
100
AcDbEntity
  8
1
100
AcDbLine
 10
3337.499995502344
 20
1962.500003026558
 30
0.0
 11
3374.999995502344
 21
1912.500003026558
 31
0.0
  0
LINE
  5
39C0
330
18
100
AcDbEntity
  8
1
100
AcDbLine
 10
3225.0
 20
2000.0
 30
0.0
 11
3225.0
 21
1962.5
 31
0.0
  0
LINE
  5
39C1
330
18
100
AcDbEntity
  8
1
100
AcDbLine
 10
3187.499995502345
 20
1962.500003026558
 30
0.0
 11
3224.999995502344
 21
1912.500003026558
 31
0.0
  0
LINE
  5
39C2
330
18
100
AcDbEntity
  8
1
100
AcDbLine
 10
3224.999995502344
 20
1912.500003026558
 30
0.0
 11
3224.999995502344
 21
1912.500003026558
 31
0.0
  0
LINE
  5
39C3
330
18
100
AcDbEntity
  8
1
100
AcDbLine
 10
3212.499995502344
 20
1975.000003026558
 30
0.0
 11
3237.499995502345
 21
1950.000003026558
 31
0.0
  0
LINE
  5
39C4
330
18
100
AcDbEntity
  8
1
100
AcDbLine
 10
3237.499995502345
 20
1975.000003026558
 30
0.0
 11
3212.499995502344
 21
1950.000003026558
 31
0.0
  0
CIRCLE
  5
39C5
330
18
100
AcDbEntity
  8
1
100
AcDbCircle
 10
3225.0
 20
2050.0
 30
0.0
 40
5.0
  0
LINE
  5
39C6
330
18
100
AcDbEntity
  8
1
100
AcDbLine
 10
3375.0
 20
2000.0
 30
0.0
 11
3375.0
 21
1962.5
 31
0.0
  0
LINE
  5
39C7
330
18
100
AcDbEntity
  8
1
100
AcDbLine
 10
3374.999995502344
 20
1912.500003026558
 30
0.0
 11
3374.999995502344
 21
1912.500003026558
 31
0.0
  0
LINE
  5
39C8
330
18
100
AcDbEntity
  8
1
100
AcDbLine
 10
3362.499995502345
 20
1975.000003026558
 30
0.0
 11
3387.499995502345
 21
1950.000003026558
 31
0.0
  0
LINE
  5
39C9
330
18
100
AcDbEntity
  8
1
100
AcDbLine
 10
3387.499995502345
 20
1975.000003026558
 30
0.0
 11
3362.499995502345
 21
1950.000003026558
 31
0.0
  0
LINE
  5
39CA
330
18
100
AcDbEntity
  8
1
100
AcDbLine
 10
3375.0
 20
2050.0
 30
0.0
 11
3375.0
 21
2000.0
 31
0.0
  0
LINE
  5
39CB
330
18
100
AcDbEntity
  8
1
100
AcDbLine
 10
3187.499995502345
 20
2162.500003026558
 30
0.0
 11
3224.999995502344
 21
2112.500003026558
 31
0.0
  0
LINE
  5
39CC
330
18
100
AcDbEntity
  8
1
100
AcDbLine
 10
3224.999995502344
 20
2112.500003026558
 30
0.0
 11
3224.999995502344
 21
2112.500003026558
 31
0.0
  0
LINE
  5
39CD
330
18
100
AcDbEntity
  8
1
100
AcDbLine
 10
3237.499995502345
 20
2175.000003026558
 30
0.0
 11
3212.499995502344
 21
2150.000003026558
 31
0.0
  0
LINE
  5
39CE
330
18
100
AcDbEntity
  8
1
100
AcDbLine
 10
3212.499995502344
 20
2175.000003026558
 30
0.0
 11
3237.499995502345
 21
2150.000003026558
 31
0.0
  0
LINE
  5
39CF
330
18
100
AcDbEntity
  8
1
100
AcDbLine
 10
3225.0
 20
2200.0
 30
0.0
 11
3225.0
 21
2162.5
 31
0.0
  0
CIRCLE
  5
39D0
330
18
100
AcDbEntity
  8
1
100
AcDbCircle
 10
3225.0
 20
2250.0
 30
0.0
 40
10.0
  0
LINE
  5
39D1
330
18
100
AcDbEntity
  8
1
370
    35
100
AcDbLine
 10
3200.0
 20
2325.0
 30
0.0
 11
3025.0
 21
2325.0
 31
0.0
  0
LINE
  5
39D4
330
18
100
AcDbEntity
  8
1
  6
DASHED
100
AcDbLine
 10
3025.0
 20
1950.0
 30
0.0
 11
3075.0
 21
1600.0
 31
0.0
  0
LINE
  5
39D5
330
18
100
AcDbEntity
  8
1
  6
DASHED
100
AcDbLine
 10
3075.0
 20
1600.0
 30
0.0
 11
3550.0
 21
1600.0
 31
0.0
  0
LINE
  5
39D6
330
18
100
AcDbEntity
  8
1
  6
DASHED
100
AcDbLine
 10
3575.0
 20
1100.0
 30
0.0
 11
3575.0
 21
1687.5
 31
0.0
  0
LINE
  5
39D8
330
18
100
AcDbEntity
  8
1
  6
DASHED
100
AcDbLine
 10
3550.0
 20
1600.0
 30
0.0
 11
3550.0
 21
1687.5
 31
0.0
  0
TEXT
  5
39D9
330
18
100
AcDbEntity
  8
1
100
AcDbText
 10
1528.333337732691
 20
2255.000005636599
 30
0.0
 40
40.0
  1
分電盤
 41
0.7
  7
M7
 72
     1
 11
1575.000004399358
 21
2275.000005636598
 31
0.0
100
AcDbText
 73
     2
  0
TEXT
  5
39DA
330
18
100
AcDbEntity
  8
1
100
AcDbText
 10
3519.733337732692
 20
2255.000005636599
 30
0.0
 40
40.0
  1
動力制御盤
 41
0.7
  7
M7
 72
     1
 11
3600.000004399358
 21
2275.000005636598
 31
0.0
100
AcDbText
 73
     2
  0
LINE
  5
39DB
330
18
100
AcDbEntity
  8
1
100
AcDbLine
 10
1000.0
 20
2400.0
 30
0.0
 11
1000.0
 21
575.0
 31
0.0
  0
LINE
  5
39DC
330
18
100
AcDbEntity
  8
1
100
AcDbLine
 10
1000.0
 20
575.0
 30
0.0
 11
2675.0
 21
575.0
 31
0.0
  0
LINE
  5
39DD
330
18
100
AcDbEntity
  8
1
100
AcDbLine
 10
2675.0
 20
575.0
 30
0.0
 11
2675.0
 21
2400.0
 31
0.0
  0
LINE
  5
39DE
330
18
100
AcDbEntity
  8
1
100
AcDbLine
 10
2675.0
 20
2400.0
 30
0.0
 11
1000.0
 21
2400.0
 31
0.0
  0
LINE
  5
39E5
330
18
100
AcDbEntity
  8
1
370
    30
100
AcDbLine
 10
2000.0
 20
1625.0
 30
0.0
 11
2175.0
 21
1625.0
 31
0.0
  0
LWPOLYLINE
  5
39E6
330
18
100
AcDbEntity
  8
1
  6
DASHED
100
AcDbPolyline
 90
        4
 70
     1
 43
0.0
 10
2300.0
 20
2100.0
 10
2625.0
 20
2100.0
 10
2625.0
 20
1350.0
 10
2300.0
 20
1350.0
  0
LINE
  5
39E7
330
18
100
AcDbEntity
  8
1
100
AcDbLine
 10
2475.0
 20
1387.5
 30
0.0
 11
2375.0
 21
1387.5
 31
0.0
  0
LINE
  5
39E8
330
18
100
AcDbEntity
  8
1
100
AcDbLine
 10
2375.0
 20
1412.5
 30
0.0
 11
2475.0
 21
1412.5
 31
0.0
  0
CIRCLE
  5
39E9
330
18
100
AcDbEntity
  8
1
100
AcDbCircle
 10
2400.0
 20
1400.0
 30
0.0
 40
7.5
  0
LINE
  5
39EA
330
18
100
AcDbEntity
  8
1
100
AcDbLine
 10
2375.0
 20
1387.5
 30
0.0
 11
2375.0
 21
1412.5
 31
0.0
  0
CIRCLE
  5
39EB
330
18
100
AcDbEntity
  8
1
100
AcDbCircle
 10
2450.0
 20
1400.0
 30
0.0
 40
7.5
  0
CIRCLE
  5
39EC
330
18
100
AcDbEntity
  8
1
100
AcDbCircle
 10
2425.0
 20
1400.0
 30
0.0
 40
7.5
  0
LINE
  5
39ED
330
18
100
AcDbEntity
  8
1
100
AcDbLine
 10
2475.0
 20
1412.5
 30
0.0
 11
2475.0
 21
1387.5
 31
0.0
  0
LINE
  5
39EE
330
18
100
AcDbEntity
  8
1
  6
DASHED
100
AcDbLine
 10
2450.0
 20
1400.0
 30
0.0
 11
2450.0
 21
1900.0
 31
0.0
  0
TEXT
  5
39EF
330
18
100
AcDbEntity
  8
1
100
AcDbText
 10
2303.333337732692
 20
2105.000005636598
 30
0.0
 40
40.0
  1
端子盤
 41
0.7
  7
M7
 72
     1
 11
2350.000004399358
 21
2125.000005636598
 31
0.0
100
AcDbText
 73
     2
  0
CIRCLE
  5
39F0
330
18
100
AcDbEntity
  8
1
100
AcDbCircle
 10
3500.0
 20
350.0
 30
0.0
 40
76.03453162872774
  0
LINE
  5
39F1
330
18
100
AcDbEntity
  8
1
100
AcDbLine
 10
3475.0
 20
275.0
 30
0.0
 11
3450.0
 21
225.0
 31
0.0
  0
LINE
  5
39F2
330
18
100
AcDbEntity
  8
1
100
AcDbLine
 10
3450.0
 20
225.0
 30
0.0
 11
3550.0
 21
225.0
 31
0.0
  0
LINE
  5
39F3
330
18
100
AcDbEntity
  8
1
100
AcDbLine
 10
3550.0
 20
225.0
 30
0.0
 11
3525.0
 21
275.0
 31
0.0
  0
TEXT
  5
39F4
330
18
100
AcDbEntity
  8
1
100
AcDbText
 10
3451.666667257432
 20
330.0000032548514
 30
0.0
 40
40.0
  1
ポンプ
 41
0.7
  7
M7
 72
     1
 11
3500.000000590766
 21
350.0000032548514
 31
0.0
100
AcDbText
 73
     2
  0
LINE
  5
39F5
330
18
100
AcDbEntity
  8
1
100
AcDbLine
 10
3762.5
 20
125.0
 30
0.0
 11
3762.5
 21
0.0
 31
0.0
  0
LINE
  5
39F6
330
18
100
AcDbEntity
  8
1
100
AcDbLine
 10
3762.5
 20
0.0
 30
0.0
 11
3912.5
 21
0.0
 31
0.0
  0
LINE
  5
39F7
330
18
100
AcDbEntity
  8
1
100
AcDbLine
 10
3912.5
 20
0.0
 30
0.0
 11
3912.5
 21
125.0
 31
0.0
  0
LINE
  5
39F8
330
18
100
AcDbEntity
  8
1
100
AcDbLine
 10
3912.5
 20
100.0
 30
0.0
 11
3762.5
 21
100.0
 31
0.0
  0
LINE
  5
39F9
330
18
100
AcDbEntity
  8
1
100
AcDbLine
 10
3787.5
 20
100.0
 30
0.0
 11
3787.5
 21
75.0
 31
0.0
  0
LINE
  5
39FA
330
18
100
AcDbEntity
  8
1
100
AcDbLine
 10
3812.5
 20
100.0
 30
0.0
 11
3812.5
 21
62.5
 31
0.0
  0
LINE
  5
39FB
330
18
100
AcDbEntity
  8
1
100
AcDbLine
 10
3837.5
 20
100.0
 30
0.0
 11
3837.5
 21
50.0
 31
0.0
  0
LINE
  5
39FC
330
18
100
AcDbEntity
  8
1
100
AcDbLine
 10
3862.5
 20
100.0
 30
0.0
 11
3862.5
 21
37.5
 31
0.0
  0
LINE
  5
39FD
330
18
100
AcDbEntity
  8
1
100
AcDbLine
 10
3887.5
 20
100.0
 30
0.0
 11
3887.5
 21
25.0
 31
0.0
  0
LINE
  5
39FE
330
18
100
AcDbEntity
  8
1
100
AcDbLine
 10
3775.0
 20
100.0
 30
0.0
 11
3775.0
 21
112.5
 31
0.0
  0
LINE
  5
39FF
330
18
100
AcDbEntity
  8
1
100
AcDbLine
 10
3775.0
 20
112.5
 30
0.0
 11
3900.0
 21
112.5
 31
0.0
  0
LINE
  5
3A00
330
18
100
AcDbEntity
  8
1
100
AcDbLine
 10
3900.0
 20
112.5
 30
0.0
 11
3900.0
 21
100.0
 31
0.0
  0
LWPOLYLINE
  5
3A03
330
18
100
AcDbEntity
  8
1
100
AcDbPolyline
 90
        4
 70
     1
 43
0.0
 10
3425.0
 20
850.0
 10
3700.0
 20
850.0
 10
3700.0
 20
550.0
 10
3425.0
 20
550.0
  0
LINE
  5
3A04
330
18
100
AcDbEntity
  8
1
  6
DASHED
100
AcDbLine
 10
3350.0
 20
500.0
 30
0.0
 11
3587.5
 21
500.0
 31
0.0
  0
LINE
  5
3A05
330
18
100
AcDbEntity
  8
1
100
AcDbLine
 10
3512.499995502345
 20
812.5000030265582
 30
0.0
 11
3487.499995502345
 21
787.5000030265582
 31
0.0
  0
LINE
  5
3A06
330
18
100
AcDbEntity
  8
1
100
AcDbLine
 10
3487.499995502345
 20
812.5000030265582
 30
0.0
 11
3512.499995502345
 21
787.5000030265582
 31
0.0
  0
LINE
  5
3A07
330
18
100
AcDbEntity
  8
1
100
AcDbLine
 10
3462.499995502344
 20
800.0000030265582
 30
0.0
 11
3499.999995502344
 21
750.0000030265582
 31
0.0
  0
LINE
  5
3A0B
330
18
100
AcDbEntity
  8
1
370
    35
100
AcDbLine
 10
3475.0
 20
925.0
 30
0.0
 11
3500.0
 21
850.0
 31
0.0
  0
LINE
  5
3A0C
330
18
100
AcDbEntity
  8
1
370
    40
100
AcDbLine
 10
3300.0
 20
925.0
 30
0.0
 11
3300.0
 21
900.0
 31
0.0
  0
LINE
  5
3A0D
330
18
100
AcDbEntity
  8
1
  6
DASHED
100
AcDbLine
 10
3300.0
 20
550.0
 30
0.0
 11
3350.0
 21
500.0
 31
0.0
  0
LINE
  5
3A0E
330
18
100
AcDbEntity
  8
1
  6
DASHDOT
100
AcDbLine
 10
3225.0
 20
550.0
 30
0.0
 11
3225.0
 21
850.0
 31
0.0
  0
LWPOLYLINE
  5
3A0F
330
18
100
AcDbEntity
  8
1
100
AcDbPolyline
 90
        4
 70
     1
 43
0.0
 10
3275.0
 20
700.0
 10
3325.0
 20
700.0
 10
3325.0
 20
600.0
 10
3275.0
 20
600.0
  0
LINE
  5
3A10
330
18
100
AcDbEntity
  8
1
  6
DASHDOT
100
AcDbLine
 10
3375.0
 20
850.0
 30
0.0
 11
3375.0
 21
550.0
 31
0.0
  0
LINE
  5
3A11
330
18
100
AcDbEntity
  8
1
100
AcDbLine
 10
3287.5
 20
637.5
 30
0.0
 11
3312.5
 21
662.5
 31
0.0
  0
LINE
  5
3A12
330
18
100
AcDbEntity
  8
1
100
AcDbLine
 10
3300.0
 20
612.5
 30
0.0
 11
3312.5
 21
625.0
 31
0.0
  0
HATCH
  5
3A13
330
18
100
AcDbEntity
  8
1
100
AcDbHatch
 10
0.0
 20
0.0
 30
0.0
210
0.0
220
0.0
230
1.0
  2
ANSI31
 70
     0
 71
     0
 91
        2
 92
        7
 72
     0
 73
     1
 93
        3
 10
3300.0
 20
612.5
 10
3303.125
 20
625.0
 10
3287.5
 20
625.0
 97
        0
 92
        7
 72
     0
 73
     1
 93
        3
 10
3312.5
 20
625.0
 10
3303.125
 20
625.0
 10
3300.0
 20
612.5
 97
        0
 75
     0
 76
     1
 52
0.0
 41
0.5
 77
     0
 78
     1
 53
45.0
 43
2800.0
 44
-500.0
 45
-1.122532015133643
 46
1.122532015133644
 79
     0
 47
0.668826438124856
 98
        2
 10
3297.793164630124
 20
619.7660988822954
 10
3305.155746740402
 20
621.1037548065769
  0
LINE
  5
3A14
330
18
100
AcDbEntity
  8
1
100
AcDbLine
 10
3287.5
 20
625.0
 30
0.0
 11
3312.5
 21
625.0
 31
0.0
  0
LINE
  5
3A15
330
18
100
AcDbEntity
  8
1
100
AcDbLine
 10
3312.5
 20
662.5
 30
0.0
 11
3300.0
 21
612.5
 31
0.0
  0
CIRCLE
  5
3A16
330
18
100
AcDbEntity
  8
1
100
AcDbCircle
 10
3300.0
 20
550.0
 30
0.0
 40
10.0
  0
LINE
  5
3A17
330
18
100
AcDbEntity
  8
1
  6
DASHDOT
100
AcDbLine
 10
3375.0
 20
550.0
 30
0.0
 11
3225.0
 21
550.0
 31
0.0
  0
LINE
  5
3A18
330
18
100
AcDbEntity
  8
1
100
AcDbLine
 10
3300.0
 20
550.0
 30
0.0
 11
3300.0
 21
600.0
 31
0.0
  0
LINE
  5
3A19
330
18
100
AcDbEntity
  8
1
100
AcDbLine
 10
3300.0
 20
612.5
 30
0.0
 11
3287.5
 21
625.0
 31
0.0
  0
LINE
  5
3A1A
330
18
100
AcDbEntity
  8
1
100
AcDbLine
 10
3300.0
 20
687.5
 30
0.0
 11
3287.5
 21
637.5
 31
0.0
  0
CIRCLE
  5
3A1B
330
18
100
AcDbEntity
  8
1
100
AcDbCircle
 10
3300.0
 20
850.0
 30
0.0
 40
10.0
  0
LINE
  5
3A1C
330
18
100
AcDbEntity
  8
1
100
AcDbLine
 10
3287.499995502344
 20
812.5000030265582
 30
0.0
 11
3312.499995502344
 21
787.5000030265582
 31
0.0
  0
LINE
  5
3A1D
330
18
100
AcDbEntity
  8
1
100
AcDbLine
 10
3312.499995502344
 20
812.5000030265582
 30
0.0
 11
3287.499995502344
 21
787.5000030265582
 31
0.0
  0
LINE
  5
3A1E
330
18
100
AcDbEntity
  8
1
  6
DASHDOT
100
AcDbLine
 10
3225.0
 20
850.0
 30
0.0
 11
3375.0
 21
850.0
 31
0.0
  0
LINE
  5
3A1F
330
18
100
AcDbEntity
  8
1
100
AcDbLine
 10
3300.0
 20
850.0
 30
0.0
 11
3300.0
 21
800.0
 31
0.0
  0
LINE
  5
3A20
330
18
100
AcDbEntity
  8
1
100
AcDbLine
 10
3300.0
 20
750.0
 30
0.0
 11
3300.0
 21
700.0
 31
0.0
  0
LINE
  5
3A21
330
18
100
AcDbEntity
  8
1
100
AcDbLine
 10
3262.499995502345
 20
800.0000030265582
 30
0.0
 11
3299.999995502345
 21
750.0000030265582
 31
0.0
  0
LINE
  5
3A22
330
18
100
AcDbEntity
  8
1
100
AcDbLine
 10
3299.999995502345
 20
750.0000030265582
 30
0.0
 11
3299.999995502345
 21
750.0000030265582
 31
0.0
  0
LINE
  5
3A23
330
18
100
AcDbEntity
  8
1
370
    35
100
AcDbLine
 10
3300.0
 20
900.0
 30
0.0
 11
3300.0
 21
850.0
 31
0.0
  0
LINE
  5
3A24
330
18
100
AcDbEntity
  8
1
370
    35
100
AcDbLine
 10
3475.0
 20
925.0
 30
0.0
 11
3300.0
 21
925.0
 31
0.0
  0
CIRCLE
  5
3A27
330
18
100
AcDbEntity
  8
1
100
AcDbCircle
 10
3612.5
 20
587.5
 30
0.0
 40
7.5
  0
LINE
  5
3A28
330
18
100
AcDbEntity
  8
1
100
AcDbLine
 10
3662.5
 20
575.0
 30
0.0
 11
3562.5
 21
575.0
 31
0.0
  0
LINE
  5
3A29
330
18
100
AcDbEntity
  8
1
100
AcDbLine
 10
3562.5
 20
600.0
 30
0.0
 11
3662.5
 21
600.0
 31
0.0
  0
LINE
  5
3A2A
330
18
100
AcDbEntity
  8
1
  6
DASHED
100
AcDbLine
 10
3587.5
 20
500.0
 30
0.0
 11
3587.5
 21
587.5
 31
0.0
  0
LINE
  5
3A2B
330
18
100
AcDbEntity
  8
1
100
AcDbLine
 10
3562.5
 20
575.0
 30
0.0
 11
3562.5
 21
600.0
 31
0.0
  0
CIRCLE
  5
3A2C
330
18
100
AcDbEntity
  8
1
100
AcDbCircle
 10
3587.5
 20
587.5
 30
0.0
 40
7.5
  0
CIRCLE
  5
3A2D
330
18
100
AcDbEntity
  8
1
100
AcDbCircle
 10
3637.5
 20
587.5
 30
0.0
 40
7.5
  0
LINE
  5
3A2E
330
18
100
AcDbEntity
  8
1
100
AcDbLine
 10
3662.5
 20
600.0
 30
0.0
 11
3662.5
 21
575.0
 31
0.0
  0
TEXT
  5
3A2F
330
18
100
AcDbEntity
  8
1
100
AcDbText
 10
3538.566671066025
 20
855.0000056365988
 30
0.0
 40
40.0
  1
ポンプ制御盤
 41
0.7
  7
M7
 72
     1
 11
3637.500004399358
 21
875.0000056365989
 31
0.0
100
AcDbText
 73
     2
  0
LINE
  5
3A30
330
18
100
AcDbEntity
  8
1
100
AcDbLine
 10
3500.0
 20
750.0
 30
0.0
 11
3500.0
 21
425.0
 31
0.0
  0
LWPOLYLINE
  5
3A31
330
18
100
AcDbEntity
  8
1
100
AcDbPolyline
 90
        4
 70
     1
 43
0.0
 10
3525.0
 20
737.5
 10
3625.0
 20
737.5
 10
3625.0
 20
687.5
 10
3525.0
 20
687.5
  0
LINE
  5
3A3C
330
18
100
AcDbEntity
  8
1
100
AcDbLine
 10
3499.999995502344
 20
750.0000030265582
 30
0.0
 11
3499.999995502344
 21
750.0000030265582
 31
0.0
  0
LINE
  5
3A3D
330
18
100
AcDbEntity
  8
1
100
AcDbLine
 10
3500.0
 20
837.5
 30
0.0
 11
3500.0
 21
800.0
 31
0.0
  0
CIRCLE
  5
3A3E
330
18
100
AcDbEntity
  8
1
100
AcDbCircle
 10
3500.0
 20
850.0
 30
0.0
 40
10.0
  0
LINE
  5
3A3F
330
18
100
AcDbEntity
  8
1
370
    30
100
AcDbLine
 10
3625.0
 20
712.5
 30
0.0
 11
3737.5
 21
712.5
 31
0.0
  0
LINE
  5
3A40
330
18
100
AcDbEntity
  8
1
370
    30
100
AcDbLine
 10
3837.5
 20
712.5
 30
0.0
 11
3837.5
 21
112.5
 31
0.0
  0
LWPOLYLINE
  5
3A41
330
18
100
AcDbEntity
  8
1
100
AcDbPolyline
 90
        4
 70
     1
 43
0.0
 10
3737.5
 20
750.0
 10
3787.5
 20
750.0
 10
3787.5
 20
650.0
 10
3737.5
 20
650.0
  0
LINE
  5
3A42
330
18
100
AcDbEntity
  8
1
100
AcDbLine
 10
3762.5
 20
737.5
 30
0.0
 11
3750.0
 21
687.5
 31
0.0
  0
HATCH
  5
3A43
330
18
100
AcDbEntity
  8
1
100
AcDbHatch
 10
0.0
 20
0.0
 30
0.0
210
0.0
220
0.0
230
1.0
  2
ANSI31
 70
     0
 71
     0
 91
        2
 92
        7
 72
     0
 73
     1
 93
        3
 10
3762.5
 20
662.5
 10
3765.625
 20
675.0
 10
3750.0
 20
675.0
 97
        0
 92
        7
 72
     0
 73
     1
 93
        3
 10
3775.0
 20
675.0
 10
3765.625
 20
675.0
 10
3762.5
 20
662.5
 97
        0
 75
     0
 76
     1
 52
0.0
 41
0.5
 77
     0
 78
     1
 53
45.0
 43
3262.5
 44
-450.0
 45
-1.122532015133643
 46
1.122532015133644
 79
     0
 47
0.668826438124856
 98
        2
 10
3760.293164630124
 20
669.7660988822954
 10
3767.655746740401
 20
671.1037548065769
  0
LINE
  5
3A44
330
18
100
AcDbEntity
  8
1
100
AcDbLine
 10
3775.0
 20
712.5
 30
0.0
 11
3762.5
 21
662.5
 31
0.0
  0
LINE
  5
3A45
330
18
100
AcDbEntity
  8
1
100
AcDbLine
 10
3762.5
 20
662.5
 30
0.0
 11
3750.0
 21
675.0
 31
0.0
  0
LINE
  5
3A46
330
18
100
AcDbEntity
  8
1
100
AcDbLine
 10
3762.5
 20
662.5
 30
0.0
 11
3775.0
 21
675.0
 31
0.0
  0
LINE
  5
3A47
330
18
100
AcDbEntity
  8
1
100
AcDbLine
 10
3750.0
 20
687.5
 30
0.0
 11
3775.0
 21
712.5
 31
0.0
  0
LINE
  5
3A48
330
18
100
AcDbEntity
  8
1
100
AcDbLine
 10
3750.0
 20
675.0
 30
0.0
 11
3775.0
 21
675.0
 31
0.0
  0
LINE
  5
3A49
330
18
100
AcDbEntity
  8
1
370
    30
100
AcDbLine
 10
3787.5
 20
712.5
 30
0.0
 11
3837.5
 21
712.5
 31
0.0
  0
TEXT
  5
3A4A
330
18
100
AcDbEntity
  8
1
100
AcDbText
 10
3534.100004399359
 20
749.988996393271
 30
0.0
 40
40.0
  1
液面リレー
 41
0.7
  7
M7
 72
     1
 11
3612.500004399358
 21
769.988996393271
 31
0.0
100
AcDbText
 73
     2
  0
LINE
  5
3A4B
330
18
100
AcDbEntity
  8
1
  6
DASHED
100
AcDbLine
 10
3612.5
 20
350.0
 30
0.0
 11
3612.5
 21
587.5
 31
0.0
  0
LINE
  5
3A4C
330
18
100
AcDbEntity
  8
1
  6
DASHED
100
AcDbLine
 10
3575.0
 20
350.0
 30
0.0
 11
3612.5
 21
350.0
 31
0.0
  0
LINE
  5
3A4D
330
18
100
AcDbEntity
  8
1
  6
DASHED
100
AcDbLine
 10
3175.0
 20
1100.0
 30
0.0
 11
3575.0
 21
1100.0
 31
0.0
  0
LINE
  5
3A4E
330
18
100
AcDbEntity
  8
1
  6
DASHED
100
AcDbLine
 10
3175.0
 20
500.0
 30
0.0
 11
3175.0
 21
1100.0
 31
0.0
  0
LINE
  5
3A4F
330
18
100
AcDbEntity
  8
1
  6
DASHED
100
AcDbLine
 10
3175.0
 20
500.0
 30
0.0
 11
3250.0
 21
500.0
 31
0.0
  0
LINE
  5
3A50
330
18
100
AcDbEntity
  8
1
  6
DASHED
100
AcDbLine
 10
3300.0
 20
550.0
 30
0.0
 11
3250.0
 21
500.0
 31
0.0
  0
CIRCLE
  5
3A51
330
18
100
AcDbEntity
  8
1
100
AcDbCircle
 10
3775.0
 20
1450.0
 30
0.0
 40
76.03453162872774
  0
TEXT
  5
3A52
330
18
100
AcDbEntity
  8
1
100
AcDbText
 10
3728.3333339241
 20
1430.000003254851
 30
0.0
 40
40.0
  1
ファン
 41
0.7
  7
M7
 72
     1
 11
3775.000000590766
 21
1450.000003254851
 31
0.0
100
AcDbText
 73
     2
  0
LINE
  5
3A53
330
18
100
AcDbEntity
  8
1
370
    35
100
AcDbLine
 10
3375.0
 20
1862.5
 30
0.0
 11
3375.0
 21
1450.0
 31
0.0
  0
LINE
  5
3A54
330
18
100
AcDbEntity
  8
1
100
AcDbLine
 10
3875.0
 20
1912.5
 30
0.0
 11
3900.0
 21
1912.5
 31
0.0
  0
LINE
  5
3A55
330
18
100
AcDbEntity
  8
1
100
AcDbLine
 10
3900.0
 20
1912.5
 30
0.0
 11
3900.0
 21
1925.0
 31
0.0
  0
LINE
  5
3A56
330
18
100
AcDbEntity
  8
1
100
AcDbLine
 10
3900.0
 20
1925.0
 30
0.0
 11
3912.5
 21
1925.0
 31
0.0
  0
LINE
  5
3A57
330
18
100
AcDbEntity
  8
1
100
AcDbLine
 10
3912.5
 20
1925.0
 30
0.0
 11
3912.5
 21
1950.0
 31
0.0
  0
LINE
  5
3A58
330
18
100
AcDbEntity
  8
1
100
AcDbLine
 10
3912.5
 20
1950.0
 30
0.0
 11
3900.0
 21
1950.0
 31
0.0
  0
LINE
  5
3A59
330
18
100
AcDbEntity
  8
1
100
AcDbLine
 10
3900.0
 20
1950.0
 30
0.0
 11
3900.0
 21
1962.5
 31
0.0
  0
LINE
  5
3A5A
330
18
100
AcDbEntity
  8
1
100
AcDbLine
 10
3900.0
 20
1962.5
 30
0.0
 11
3875.0
 21
1962.5
 31
0.0
  0
LINE
  5
3A5B
330
18
100
AcDbEntity
  8
1
100
AcDbLine
 10
3875.0
 20
1962.5
 30
0.0
 11
3875.0
 21
1912.5
 31
0.0
  0
LINE
  5
3A5D
330
18
100
AcDbEntity
  8
1
370
    30
100
AcDbLine
 10
3875.0
 20
1937.5
 30
0.0
 11
3712.5
 21
1937.5
 31
0.0
  0
LINE
  5
3A5E
330
18
100
AcDbEntity
  8
1
370
    35
100
AcDbLine
 10
3375.0
 20
1450.0
 30
0.0
 11
3700.0
 21
1450.0
 31
0.0
  0
LWPOLYLINE
  5
3A5F
330
18
100
AcDbEntity
  8
1
100
AcDbPolyline
 90
        4
 70
     1
 43
0.0
 10
3525.0
 20
1950.0
 10
3625.0
 20
1950.0
 10
3625.0
 20
1850.0
 10
3525.0
 20
1850.0
  0
LINE
  5
3A60
330
18
100
AcDbEntity
  8
1
100
AcDbLine
 10
3900.0
 20
1887.5
 30
0.0
 11
3900.0
 21
1875.0
 31
0.0
  0
LINE
  5
3A61
330
18
100
AcDbEntity
  8
1
100
AcDbLine
 10
3900.0
 20
1875.0
 30
0.0
 11
3912.5
 21
1862.5
 31
0.0
  0
LINE
  5
3A62
330
18
100
AcDbEntity
  8
1
100
AcDbLine
 10
3912.5
 20
1862.5
 30
0.0
 11
3887.5
 21
1850.0
 31
0.0
  0
LINE
  5
3A63
330
18
100
AcDbEntity
  8
1
100
AcDbLine
 10
3887.5
 20
1850.0
 30
0.0
 11
3912.5
 21
1837.5
 31
0.0
  0
LINE
  5
3A64
330
18
100
AcDbEntity
  8
1
100
AcDbLine
 10
3912.5
 20
1837.5
 30
0.0
 11
3887.5
 21
1825.0
 31
0.0
  0
LINE
  5
3A65
330
18
100
AcDbEntity
  8
1
100
AcDbLine
 10
3887.5
 20
1825.0
 30
0.0
 11
3900.0
 21
1812.5
 31
0.0
  0
LINE
  5
3A66
330
18
100
AcDbEntity
  8
1
100
AcDbLine
 10
3900.0
 20
1812.5
 30
0.0
 11
3900.0
 21
1800.0
 31
0.0
  0
LINE
  5
3A67
330
18
100
AcDbEntity
  8
1
100
AcDbLine
 10
3879.953144730849
 20
1834.708616693697
 30
0.0
 11
3924.612552155111
 21
1856.061086006054
 31
0.0
  0
LINE
  5
3A68
330
18
100
AcDbEntity
  8
1
100
AcDbLine
 10
3924.612552155111
 20
1856.061086006054
 30
0.0
 11
3912.112552155111
 21
1856.061086006054
 31
0.0
  0
LINE
  5
3A69
330
18
100
AcDbEntity
  8
1
100
AcDbLine
 10
3924.612552155111
 20
1856.061086006054
 30
0.0
 11
3917.505279646933
 21
1845.556582960355
 31
0.0
  0
LWPOLYLINE
  5
3A6A
330
18
100
AcDbEntity
  8
1
100
AcDbPolyline
 90
        4
 70
     1
 43
0.0
 10
3875.0
 20
1900.0
 10
3925.0
 20
1900.0
 10
3925.0
 20
1787.5
 10
3875.0
 20
1787.5
  0
LINE
  5
3A6B
330
18
100
AcDbEntity
  8
1
370
    30
100
AcDbLine
 10
3875.0
 20
1862.5
 30
0.0
 11
3712.5
 21
1862.5
 31
0.0
  0
HATCH
  5
3A6C
330
18
100
AcDbEntity
  8
1
100
AcDbHatch
 10
0.0
 20
0.0
 30
0.0
210
0.0
220
0.0
230
1.0
  2
ANSI31
 70
     0
 71
     0
 91
        2
 92
        7
 72
     0
 73
     1
 93
        3
 10
3475.0
 20
2012.5
 10
3478.125
 20
2025.0
 10
3462.5
 20
2025.0
 97
        0
 92
        7
 72
     0
 73
     1
 93
        3
 10
3487.5
 20
2025.0
 10
3478.125
 20
2025.0
 10
3475.0
 20
2012.5
 97
        0
 75
     0
 76
     1
 52
0.0
 41
0.5
 77
     0
 78
     1
 53
45.0
 43
2975.0
 44
900.0
 45
-1.122532015133643
 46
1.122532015133644
 79
     0
 47
0.668826438124856
 98
        2
 10
3472.793164630124
 20
2019.766098882295
 10
3480.155746740401
 20
2021.103754806577
  0
LWPOLYLINE
  5
3A6D
330
18
100
AcDbEntity
  8
1
100
AcDbPolyline
 90
        4
 70
     1
 43
0.0
 10
3450.0
 20
2100.0
 10
3500.0
 20
2100.0
 10
3500.0
 20
2000.0
 10
3450.0
 20
2000.0
  0
LINE
  5
3A6E
330
18
100
AcDbEntity
  8
1
100
AcDbLine
 10
3462.5
 20
2025.0
 30
0.0
 11
3487.5
 21
2025.0
 31
0.0
  0
LINE
  5
3A6F
330
18
100
AcDbEntity
  8
1
100
AcDbLine
 10
3475.0
 20
2012.5
 30
0.0
 11
3462.5
 21
2025.0
 31
0.0
  0
LINE
  5
3A70
330
18
100
AcDbEntity
  8
1
100
AcDbLine
 10
3475.0
 20
2025.0
 30
0.0
 11
3475.0
 21
2087.499999999999
 31
0.0
  0
LINE
  5
3A71
330
18
100
AcDbEntity
  8
1
100
AcDbLine
 10
3475.0
 20
2012.5
 30
0.0
 11
3487.5
 21
2025.0
 31
0.0
  0
LINE
  5
3A72
330
18
100
AcDbEntity
  8
1
100
AcDbLine
 10
3375.0
 20
2050.0
 30
0.0
 11
3450.0
 21
2050.0
 31
0.0
  0
LINE
  5
3A73
330
18
100
AcDbEntity
  8
1
370
    30
100
AcDbLine
 10
3500.0
 20
2050.0
 30
0.0
 11
3575.0
 21
2050.0
 31
0.0
  0
LINE
  5
3A74
330
18
100
AcDbEntity
  8
1
370
    30
100
AcDbLine
 10
3575.0
 20
2050.0
 30
0.0
 11
3575.0
 21
1950.0
 31
0.0
  0
LWPOLYLINE
  5
3A75
330
18
100
AcDbEntity
  8
1
100
AcDbPolyline
 90
        4
 70
     1
 43
0.0
 10
3662.5
 20
2000.0
 10
3712.5
 20
2000.0
 10
3712.5
 20
1900.0
 10
3662.5
 20
1900.0
  0
LINE
  5
3A76
330
18
100
AcDbEntity
  8
1
100
AcDbLine
 10
3687.5
 20
1925.0
 30
0.0
 11
3687.5
 21
1987.5
 31
0.0
  0
LINE
  5
3A77
330
18
100
AcDbEntity
  8
1
100
AcDbLine
 10
3687.5
 20
1912.5
 30
0.0
 11
3675.0
 21
1925.0
 31
0.0
  0
LINE
  5
3A78
330
18
100
AcDbEntity
  8
1
100
AcDbLine
 10
3687.5
 20
1912.5
 30
0.0
 11
3700.0
 21
1925.0
 31
0.0
  0
HATCH
  5
3A79
330
18
100
AcDbEntity
  8
1
100
AcDbHatch
 10
0.0
 20
0.0
 30
0.0
210
0.0
220
0.0
230
1.0
  2
ANSI31
 70
     0
 71
     0
 91
        2
 92
        7
 72
     0
 73
     1
 93
        3
 10
3687.5
 20
1912.5
 10
3690.625
 20
1925.0
 10
3675.0
 20
1925.0
 97
        0
 92
        7
 72
     0
 73
     1
 93
        3
 10
3700.0
 20
1925.0
 10
3690.625
 20
1925.0
 10
3687.5
 20
1912.5
 97
        0
 75
     0
 76
     1
 52
0.0
 41
0.5
 77
     0
 78
     1
 53
45.0
 43
3187.5
 44
800.0
 45
-1.122532015133643
 46
1.122532015133644
 79
     0
 47
0.668826438124856
 98
        2
 10
3685.293164630124
 20
1919.766098882295
 10
3692.655746740401
 20
1921.103754806577
  0
LINE
  5
3A7A
330
18
100
AcDbEntity
  8
1
100
AcDbLine
 10
3675.0
 20
1925.0
 30
0.0
 11
3700.0
 21
1925.0
 31
0.0
  0
LINE
  5
3A7B
330
18
100
AcDbEntity
  8
1
100
AcDbLine
 10
3687.5
 20
1825.0
 30
0.0
 11
3687.5
 21
1887.5
 31
0.0
  0
LWPOLYLINE
  5
3A7C
330
18
100
AcDbEntity
  8
1
100
AcDbPolyline
 90
        4
 70
     1
 43
0.0
 10
3662.5
 20
1900.0
 10
3712.5
 20
1900.0
 10
3712.5
 20
1800.0
 10
3662.5
 20
1800.0
  0
LINE
  5
3A7D
330
18
100
AcDbEntity
  8
1
100
AcDbLine
 10
3675.0
 20
1825.0
 30
0.0
 11
3700.0
 21
1825.0
 31
0.0
  0
HATCH
  5
3A7E
330
18
100
AcDbEntity
  8
1
100
AcDbHatch
 10
0.0
 20
0.0
 30
0.0
210
0.0
220
0.0
230
1.0
  2
ANSI31
 70
     0
 71
     0
 91
        2
 92
        7
 72
     0
 73
     1
 93
        3
 10
3687.5
 20
1812.5
 10
3690.625
 20
1825.0
 10
3675.0
 20
1825.0
 97
        0
 92
        7
 72
     0
 73
     1
 93
        3
 10
3700.0
 20
1825.0
 10
3690.625
 20
1825.0
 10
3687.5
 20
1812.5
 97
        0
 75
     0
 76
     1
 52
0.0
 41
0.5
 77
     0
 78
     1
 53
45.0
 43
3187.5
 44
700.0
 45
-1.122532015133643
 46
1.122532015133644
 79
     0
 47
0.668826438124856
 98
        2
 10
3685.293164630124
 20
1819.766098882295
 10
3692.655746740401
 20
1821.103754806577
  0
LINE
  5
3A7F
330
18
100
AcDbEntity
  8
1
100
AcDbLine
 10
3687.5
 20
1812.5
 30
0.0
 11
3700.0
 21
1825.0
 31
0.0
  0
LINE
  5
3A80
330
18
100
AcDbEntity
  8
1
100
AcDbLine
 10
3687.5
 20
1812.5
 30
0.0
 11
3675.0
 21
1825.0
 31
0.0
  0
LINE
  5
3A81
330
18
100
AcDbEntity
  8
1
370
    30
100
AcDbLine
 10
3662.5
 20
1937.5
 30
0.0
 11
3625.0
 21
1937.5
 31
0.0
  0
LINE
  5
3A82
330
18
100
AcDbEntity
  8
1
370
    30
100
AcDbLine
 10
3662.5
 20
1862.5
 30
0.0
 11
3625.0
 21
1862.5
 31
0.0
  0
LINE
  5
3A83
330
18
100
AcDbEntity
  8
1
  6
DASHED
100
AcDbLine
 10
3025.0
 20
1400.0
 30
0.0
 11
3025.0
 21
1950.0
 31
0.0
  0
LINE
  5
3A84
330
18
100
AcDbEntity
  8
1
100
AcDbLine
 10
2845.0
 20
1037.5
 30
0.0
 11
2855.0
 21
1037.5
 31
0.0
  0
LINE
  5
3A85
330
18
100
AcDbEntity
  8
1
100
AcDbLine
 10
2835.0
 20
1062.5
 30
0.0
 11
2865.0
 21
1062.5
 31
0.0
  0
LINE
  5
3A86
330
18
100
AcDbEntity
  8
1
100
AcDbLine
 10
2825.0
 20
1087.5
 30
0.0
 11
2875.0
 21
1087.5
 31
0.0
  0
LINE
  5
3A87
330
18
100
AcDbEntity
  8
1
  6
DASHED
100
AcDbLine
 10
2850.0
 20
1400.0
 30
0.0
 11
3025.0
 21
1400.0
 31
0.0
  0
LINE
  5
3A88
330
18
100
AcDbEntity
  8
1
  6
DASHED
100
AcDbLine
 10
2850.0
 20
1087.5
 30
0.0
 11
2850.0
 21
1400.0
 31
0.0
  0
TEXT
  5
3A89
330
18
100
AcDbEntity
  8
1
100
AcDbText
 10
3551.666671066025
 20
1880.000005636598
 30
0.0
 40
40.0
  1
PC
 41
0.7
  7
M7
 72
     1
 11
3575.000004399358
 21
1900.000005636598
 31
0.0
100
AcDbText
 73
     2
  0
LINE
  5
3A8A
330
18
100
AcDbEntity
  8
1
  6
DASHED
100
AcDbLine
 10
3475.0
 20
1750.0
 30
0.0
 11
3475.0
 21
2000.0
 31
0.0
  0
LINE
  5
3A8B
330
18
100
AcDbEntity
  8
1
  6
DASHED
100
AcDbLine
 10
3687.5
 20
1750.0
 30
0.0
 11
3687.5
 21
1800.0
 31
0.0
  0
LINE
  5
3A8C
330
18
100
AcDbEntity
  8
1
  6
DASHED
100
AcDbLine
 10
3475.0
 20
1750.0
 30
0.0
 11
3687.5
 21
1750.0
 31
0.0
  0
LINE
  5
3A8D
330
18
100
AcDbEntity
  8
1
  6
DASHED
100
AcDbLine
 10
3600.0
 20
1700.0
 30
0.0
 11
3600.0
 21
1750.0
 31
0.0
  0
TEXT
  5
3A97
330
18
100
AcDbEntity
  8
1
100
AcDbText
 10
130.5000005907659
 20
2005.000003254851
 30
0.0
 40
40.0
  1
1
 41
0.7
  7
M7
 72
     1
 11
137.5000005907659
 21
2025.000003254851
 31
0.0
100
AcDbText
 73
     2
  0
CIRCLE
  5
3A98
330
18
100
AcDbEntity
  8
1
100
AcDbCircle
 10
137.5
 20
2025.0
 30
0.0
 40
40.0
  0
CIRCLE
  5
3A99
330
18
100
AcDbEntity
  8
1
100
AcDbCircle
 10
787.5
 20
2025.0
 30
0.0
 40
40.0
  0
TEXT
  5
3A9A
330
18
100
AcDbEntity
  8
1
100
AcDbText
 10
780.5000005907658
 20
2005.000003254851
 30
0.0
 40
40.0
  1
1
 41
0.7
  7
M7
 72
     1
 11
787.5000005907659
 21
2025.000003254851
 31
0.0
100
AcDbText
 73
     2
  0
TEXT
  5
3A9B
330
18
100
AcDbEntity
  8
1
100
AcDbText
 10
1053.166667257432
 20
2280.000003254851
 30
0.0
 40
40.0
  1
2
 41
0.7
  7
M7
 72
     1
 11
1062.500000590766
 21
2300.000003254851
 31
0.0
100
AcDbText
 73
     2
  0
CIRCLE
  5
3A9C
330
18
100
AcDbEntity
  8
1
100
AcDbCircle
 10
1062.5
 20
2300.0
 30
0.0
 40
40.0
  0
CIRCLE
  5
3A9D
330
18
100
AcDbEntity
  8
1
100
AcDbCircle
 10
2962.5
 20
2300.0
 30
0.0
 40
40.0
  0
TEXT
  5
3A9E
330
18
100
AcDbEntity
  8
1
100
AcDbText
 10
2955.500000590765
 20
2280.000003254851
 30
0.0
 40
40.0
  1
1
 41
0.7
  7
M7
 72
     1
 11
2962.500000590766
 21
2300.000003254851
 31
0.0
100
AcDbText
 73
     2
  0
TEXT
  5
3A9F
330
18
100
AcDbEntity
  8
1
100
AcDbText
 10
3230.500000590765
 20
880.0000032548513
 30
0.0
 40
40.0
  1
1
 41
0.7
  7
M7
 72
     1
 11
3237.500000590765
 21
900.0000032548514
 31
0.0
100
AcDbText
 73
     2
  0
CIRCLE
  5
3AA0
330
18
100
AcDbEntity
  8
1
100
AcDbCircle
 10
3237.5
 20
900.0
 30
0.0
 40
40.0
  0
CIRCLE
  5
3AA1
330
18
100
AcDbEntity
  8
1
370
    35
100
AcDbCircle
 10
1425.0
 20
1600.0
 30
0.0
 40
40.0
  0
TEXT
  5
3AA2
330
18
100
AcDbEntity
  8
1
100
AcDbText
 10
1415.666667257432
 20
1580.000003254851
 30
0.0
 40
40.0
  1
3
 41
0.7
  7
M7
 72
     1
 11
1425.000000590766
 21
1600.000003254851
 31
0.0
100
AcDbText
 73
     2
  0
TEXT
  5
3AA3
330
18
100
AcDbEntity
  8
1
100
AcDbText
 10
3390.666667257432
 20
2092.500003254851
 30
0.0
 40
40.0
  1
3
 41
0.7
  7
M7
 72
     1
 11
3400.000000590766
 21
2112.500003254851
 31
0.0
100
AcDbText
 73
     2
  0
CIRCLE
  5
3AA4
330
18
100
AcDbEntity
  8
1
100
AcDbCircle
 10
3400.0
 20
2112.5
 30
0.0
 40
40.0
  0
TEXT
  5
3AA5
330
18
100
AcDbEntity
  8
1
100
AcDbText
 10
2340.666667257432
 20
1705.000003254851
 30
0.0
 40
40.0
  1
5
 41
0.7
  7
M7
 72
     1
 11
2350.000000590765
 21
1725.000003254851
 31
0.0
100
AcDbText
 73
     2
  0
CIRCLE
  5
3AA6
330
18
100
AcDbEntity
  8
1
100
AcDbCircle
 10
2350.0
 20
1725.0
 30
0.0
 40
40.0
  0
CIRCLE
  5
3AA7
330
18
100
AcDbEntity
  8
1
100
AcDbCircle
 10
3737.5
 20
2037.5
 30
0.0
 40
40.0
  0
TEXT
  5
3AA8
330
18
100
AcDbEntity
  8
1
100
AcDbText
 10
3728.166667257432
 20
2017.500003254851
 30
0.0
 40
40.0
  1
7
 41
0.7
  7
M7
 72
     1
 11
3737.500000590765
 21
2037.500003254851
 31
0.0
100
AcDbText
 73
     2
  0
CIRCLE
  5
3AA9
330
18
100
AcDbEntity
  8
1
100
AcDbCircle
 10
3812.5
 20
787.5
 30
0.0
 40
40.0
  0
TEXT
  5
3AAA
330
18
100
AcDbEntity
  8
1
100
AcDbText
 10
3803.166667257432
 20
767.5000032548514
 30
0.0
 40
40.0
  1
6
 41
0.7
  7
M7
 72
     1
 11
3812.500000590766
 21
787.5000032548514
 31
0.0
100
AcDbText
 73
     2
  0
CIRCLE
  5
3AAB
330
18
100
AcDbEntity
  8
1
100
AcDbCircle
 10
1975.0
 20
1712.5
 30
0.0
 40
40.0
  0
TEXT
  5
3AAC
330
18
100
AcDbEntity
  8
1
100
AcDbText
 10
1954.000000590766
 20
1692.500003254851
 30
0.0
 40
40.0
  1
11
 41
0.7
  7
M7
 72
     1
 11
1975.000000590766
 21
1712.500003254851
 31
0.0
100
AcDbText
 73
     2
  0
TEXT
  5
3AAD
330
18
100
AcDbEntity
  8
1
100
AcDbText
 10
1240.666667257432
 20
1067.500003254851
 30
0.0
 40
40.0
  1
4
 41
0.7
  7
M7
 72
     1
 11
1250.000000590766
 21
1087.500003254851
 31
0.0
100
AcDbText
 73
     2
  0
CIRCLE
  5
3AAE
330
18
100
AcDbEntity
  8
1
100
AcDbCircle
 10
1250.0
 20
1087.5
 30
0.0
 40
40.0
  0
LINE
  5
3AAF
330
18
100
AcDbEntity
  8
1
100
AcDbLine
 10
1325.0
 20
1000.0
 30
0.0
 11
1325.0
 21
1062.5
 31
0.0
  0
HATCH
  5
3AB0
330
18
100
AcDbEntity
  8
1
100
AcDbHatch
 10
0.0
 20
0.0
 30
0.0
210
0.0
220
0.0
230
1.0
  2
ANSI31
 70
     0
 71
     0
 91
        2
 92
        7
 72
     0
 73
     1
 93
        3
 10
1325.0
 20
987.5
 10
1328.125
 20
1000.0
 10
1312.5
 20
1000.0
 97
        0
 92
        7
 72
     0
 73
     1
 93
        3
 10
1337.5
 20
1000.0
 10
1328.125
 20
1000.0
 10
1325.0
 20
987.5
 97
        0
 75
     0
 76
     1
 52
0.0
 41
0.5
 77
     0
 78
     1
 53
45.0
 43
825.0
 44
-125.0
 45
-1.122532015133643
 46
1.122532015133644
 79
     0
 47
0.668826438124856
 98
        2
 10
1322.793164630124
 20
994.7660988822955
 10
1330.155746740401
 20
996.1037548065769
  0
LINE
  5
3AB1
330
18
100
AcDbEntity
  8
1
100
AcDbLine
 10
1325.0
 20
987.5
 30
0.0
 11
1337.5
 21
1000.0
 31
0.0
  0
LINE
  5
3AB2
330
18
100
AcDbEntity
  8
1
100
AcDbLine
 10
1325.0
 20
987.5
 30
0.0
 11
1312.5
 21
1000.0
 31
0.0
  0
LINE
  5
3AB3
330
18
100
AcDbEntity
  8
1
100
AcDbLine
 10
1312.5
 20
1000.0
 30
0.0
 11
1337.5
 21
1000.0
 31
0.0
  0
LINE
  5
3AB4
330
18
100
AcDbEntity
  8
1
100
AcDbLine
 10
1300.0
 20
1075.0
 30
0.0
 11
1300.0
 21
975.0
 31
0.0
  0
LINE
  5
3AB5
330
18
100
AcDbEntity
  8
1
100
AcDbLine
 10
1300.0
 20
975.0
 30
0.0
 11
1350.0
 21
975.0
 31
0.0
  0
LINE
  5
3AB6
330
18
100
AcDbEntity
  8
1
100
AcDbLine
 10
1350.0
 20
975.0
 30
0.0
 11
1350.0
 21
1075.0
 31
0.0
  0
LINE
  5
3ABB
330
18
100
AcDbEntity
  8
1
100
AcDbLine
 10
1300.0
 20
1075.0
 30
0.0
 11
1350.0
 21
1075.0
 31
0.0
  0
CIRCLE
  5
3ABC
330
18
100
AcDbEntity
  8
1
100
AcDbCircle
 10
2225.0
 20
850.0
 30
0.0
 40
40.0
  0
TEXT
  5
3ABD
330
18
100
AcDbEntity
  8
1
100
AcDbText
 10
2201.666667257432
 20
830.0000032548513
 30
0.0
 40
40.0
  1
10
 41
0.7
  7
M7
 72
     1
 11
2225.000000590765
 21
850.0000032548514
 31
0.0
100
AcDbText
 73
     2
  0
LINE
  5
3ABF
330
18
100
AcDbEntity
  8
1
370
    20
100
AcDbLine
 10
1850.0
 20
2400.0
 30
0.0
 11
1850.0
 21
2775.0
 31
0.0
  0
ARC
  5
3AC1
330
18
100
AcDbEntity
  8
1
  6
PHANTOM
370
    30
100
AcDbCircle
 10
1001.114426224102
 20
3586.749660838371
 30
0.0
 40
1174.540007507639
100
AcDbArc
 50
268.7259951125211
 51
316.2810618870137
  0
ARC
  5
3AC2
330
18
100
AcDbEntity
  8
1
  6
PHANTOM
370
    30
100
AcDbCircle
 10
2710.619718839979
 20
3614.362070263397
 30
0.0
 40
1202.162628537862
100
AcDbArc
 50
224.2835746380247
 51
271.2812368229385
  0
TEXT
  5
3AC3
330
18
100
AcDbEntity
  8
1
100
AcDbText
 10
2415.666667257432
 20
2030.000003254851
 30
0.0
 40
40.0
  1
9
 41
0.7
  7
M7
 72
     1
 11
2425.000000590765
 21
2050.000003254851
 31
0.0
100
AcDbText
 73
     2
  0
CIRCLE
  5
3AC4
330
18
100
AcDbEntity
  8
1
100
AcDbCircle
 10
2425.0
 20
2050.0
 30
0.0
 40
40.0
  0
TEXT
  5
3AC5
330
18
100
AcDbEntity
  8
1
100
AcDbText
 10
1623.666671066025
 20
2730.000005636599
 30
0.0
 40
40.0
  1
LPZ0
 41
0.7
  7
M7
 72
     1
 11
1675.000004399358
 21
2750.000005636599
 31
0.0
100
AcDbText
 73
     2
  0
TEXT
  5
3AC7
330
18
100
AcDbEntity
  8
1
100
AcDbText
 10
2.933337732691965
 20
2417.500005636599
 30
0.0
 40
40.0
  1
キュービクル
 41
0.7
  7
M7
 72
     1
 11
100.0000043993586
 21
2437.500005636599
 31
0.0
100
AcDbText
 73
     2
  0
TEXT
  5
3AC8
330
18
100
AcDbEntity
  8
1
100
AcDbText
 10
3728.166667257432
 20
1730.000003254851
 30
0.0
 40
40.0
  1
8
 41
0.7
  7
M7
 72
     1
 11
3737.500000590765
 21
1750.000003254851
 31
0.0
100
AcDbText
 73
     2
  0
CIRCLE
  5
3AC9
330
18
100
AcDbEntity
  8
1
100
AcDbCircle
 10
3737.5
 20
1750.0
 30
0.0
 40
40.0
  0
TEXT
  5
3ACA
330
18
100
AcDbEntity
  8
1
100
AcDbText
 10
3820.666671066025
 20
1980.000005636598
 30
0.0
 40
40.0
  1
4-20mA
 41
0.7
  7
M7
 72
     1
 11
3900.000004399359
 21
2000.000005636598
 31
0.0
100
AcDbText
 73
     2
  0
TEXT
  5
3ACB
330
18
100
AcDbEntity
  8
1
100
AcDbText
 10
3853.333337732692
 20
1730.000005636598
 30
0.0
 40
40.0
  1
測温体
 41
0.7
  7
M7
 72
     1
 11
3900.000004399359
 21
1750.000005636598
 31
0.0
100
AcDbText
 73
     2
  0
LINE
  5
3AFA
330
18
100
AcDbEntity
  8
1
100
AcDbLine
 10
24.99999822613972
 20
237.5000018299233
 30
0.0
 11
1524.99999822614
 21
237.5000018299233
 31
0.0
  0
TEXT
  5
3AFB
330
18
100
AcDbEntity
  8
WAKU-MOJI
  6
Continuous
100
AcDbText
 10
224.9999982261397
 20
180.0000018299233
 30
0.0
 40
40.0
  1
電力用誘導雷アレスタ
 41
0.7
  7
M7
 11
224.9999982261397
 21
200.0000018299233
 31
0.0
100
AcDbText
 73
     2
  0
LINE
  5
3AFF
330
18
100
AcDbEntity
  8
1
100
AcDbLine
 10
24.99999822613972
 20
475.0000018299233
 30
0.0
 11
1524.99999822614
 21
475.0000018299233
 31
0.0
  0
TEXT
  5
3B00
330
18
100
AcDbEntity
  8
WAKU-MOJI
  6
Continuous
100
AcDbText
 10
224.9999982261397
 20
405.0000018299233
 30
0.0
 40
40.0
  1
電力用直撃雷アレスタユニット
 41
0.7
  7
M7
 11
224.9999982261397
 21
425.0000018299233
 31
0.0
100
AcDbText
 73
     2
  0
TEXT
  5
3B01
330
18
100
AcDbEntity
  8
WAKU-MOJI
  6
Continuous
100
AcDbText
 10
224.9999982261397
 20
330.0000018299233
 30
0.0
 40
40.0
  1
電力用誘導雷アレスタユニット
 41
0.7
  7
M7
 11
224.9999982261397
 21
350.0000018299233
 31
0.0
100
AcDbText
 73
     2
  0
TEXT
  5
3B02
330
18
100
AcDbEntity
  8
WAKU-MOJI
  6
Continuous
100
AcDbText
 10
224.9999982261397
 20
255.0000018299233
 30
0.0
 40
40.0
  1
電力用誘導雷アレスタ
 41
0.7
  7
M7
 11
224.9999982261397
 21
275.0000018299233
 31
0.0
100
AcDbText
 73
     2
  0
TEXT
  5
3B03
330
18
100
AcDbEntity
  8
WAKU-MOJI
  6
Continuous
100
AcDbText
 10
224.9999982261397
 20
105.0000018299233
 30
0.0
 40
40.0
  1
電話回路用直撃雷アレスタ
 41
0.7
  7
M7
 11
224.9999982261397
 21
125.0000018299233
 31
0.0
100
AcDbText
 73
     2
  0
LINE
  5
3B04
330
18
100
AcDbEntity
  8
1
100
AcDbLine
 10
24.99999822613972
 20
550.0000018299233
 30
0.0
 11
1524.99999822614
 21
550.0000018299233
 31
0.0
  0
LINE
  5
3B05
330
18
100
AcDbEntity
  8
1
100
AcDbLine
 10
24.99999822613972
 20
87.50000182992335
 30
0.0
 11
1524.99999822614
 21
87.50000182992335
 31
0.0
  0
LINE
  5
3B06
330
18
100
AcDbEntity
  8
1
100
AcDbLine
 10
24.99999822613972
 20
162.5000018299233
 30
0.0
 11
1524.99999822614
 21
162.5000018299233
 31
0.0
  0
LINE
  5
3B07
330
18
100
AcDbEntity
  8
1
100
AcDbLine
 10
24.99999822613972
 20
387.5000018299233
 30
0.0
 11
1524.99999822614
 21
387.5000018299233
 31
0.0
  0
LINE
  5
3B08
330
18
100
AcDbEntity
  8
1
100
AcDbLine
 10
24.99999822613972
 20
462.5000018299233
 30
0.0
 11
1524.99999822614
 21
462.5000018299233
 31
0.0
  0
LINE
  5
3B09
330
18
100
AcDbEntity
  8
1
100
AcDbLine
 10
24.99999822613972
 20
312.5000018299233
 30
0.0
 11
1524.99999822614
 21
312.5000018299233
 31
0.0
  0
LINE
  5
3B0A
330
18
100
AcDbEntity
  8
WAKU-MOJI
  6
Continuous
100
AcDbLine
 10
174.9999982261397
 20
162.5000018299233
 30
0.0
 11
174.9999982261397
 21
87.50000182992335
 31
0.0
  0
LINE
  5
3B0B
330
18
100
AcDbEntity
  8
WAKU-MOJI
  6
Continuous
100
AcDbLine
 10
24.99999822613972
 20
162.5000018299233
 30
0.0
 11
24.99999822613972
 21
87.50000182992335
 31
0.0
  0
TEXT
  5
3B0C
330
18
100
AcDbEntity
  8
1
100
AcDbText
 10
62.49999822613972
 20
105.0000018299233
 30
0.0
 40
40.0
  1
5
 41
0.7
  7
M7
 11
62.49999822613972
 21
125.0000018299233
 31
0.0
100
AcDbText
 73
     2
  0
LINE
  5
3B10
330
18
100
AcDbEntity
  8
WAKU-MOJI
  6
Continuous
100
AcDbLine
 10
24.99999822613972
 20
550.0000018299233
 30
0.0
 11
24.99999822613972
 21
162.5000018299233
 31
0.0
  0
TEXT
  5
3B11
330
18
100
AcDbEntity
  8
1
100
AcDbText
 10
62.49999822613972
 20
330.0000018299233
 30
0.0
 40
40.0
  1
2
 41
0.7
  7
M7
 11
62.49999822613972
 21
350.0000018299233
 31
0.0
100
AcDbText
 73
     2
  0
TEXT
  5
3B12
330
18
100
AcDbEntity
  8
1
100
AcDbText
 10
62.49999822613972
 20
180.0000018299233
 30
0.0
 40
40.0
  1
4
 41
0.7
  7
M7
 11
62.49999822613972
 21
200.0000018299233
 31
0.0
100
AcDbText
 73
     2
  0
TEXT
  5
3B13
330
18
100
AcDbEntity
  8
1
100
AcDbText
 10
62.49999822613972
 20
255.0000018299233
 30
0.0
 40
40.0
  1
3
 41
0.7
  7
M7
 11
62.49999822613972
 21
275.0000018299233
 31
0.0
100
AcDbText
 73
     2
  0
TEXT
  5
3B14
330
18
100
AcDbEntity
  8
1
100
AcDbText
 10
62.49999822613972
 20
405.0000018299233
 30
0.0
 40
40.0
  1
1
 41
0.7
  7
M7
 11
62.49999822613972
 21
425.0000018299233
 31
0.0
100
AcDbText
 73
     2
  0
TEXT
  5
3B15
330
18
100
AcDbEntity
  8
1
100
AcDbText
 10
57.63333155947304
 20
492.5000018299233
 30
0.0
 40
40.0
  1
記号
 41
0.7
  7
M7
 72
     1
 11
87.49999822613972
 21
512.5000018299233
 31
0.0
100
AcDbText
 73
     2
  0
LINE
  5
3B16
330
18
100
AcDbEntity
  8
WAKU-MOJI
  6
Continuous
100
AcDbLine
 10
174.9999982261397
 20
550.0000018299233
 30
0.0
 11
174.9999982261397
 21
162.5000018299233
 31
0.0
  0
TEXT
  5
3B17
330
18
100
AcDbEntity
  8
1
100
AcDbText
 10
251.0666648928063
 20
492.5000018299233
 30
0.0
 40
40.0
  1
アレスタ仕様
 41
0.7
  7
M7
 72
     1
 11
349.9999982261397
 21
512.5000018299233
 31
0.0
100
AcDbText
 73
     2
  0
LINE
  5
3B18
330
18
100
AcDbEntity
  8
WAKU-MOJI
  6
Continuous
100
AcDbLine
 10
1524.99999822614
 20
162.5000018299233
 30
0.0
 11
1524.99999822614
 21
87.50000182992335
 31
0.0
  0
LINE
  5
3B19
330
18
100
AcDbEntity
  8
WAKU-MOJI
  6
Continuous
100
AcDbLine
 10
774.9999982261397
 20
162.5000018299233
 30
0.0
 11
774.9999982261397
 21
87.50000182992335
 31
0.0
  0
TEXT
  5
3B1D
330
18
100
AcDbEntity
  8
1
100
AcDbText
 10
812.4999982261396
 20
180.0000018299233
 30
0.0
 40
40.0
  1
エースライオンコンセントＡ
 41
0.7
  7
M7
 11
812.4999982261396
 21
200.0000018299233
 31
0.0
100
AcDbText
 73
     2
  0
TEXT
  5
3B1E
330
18
100
AcDbEntity
  8
1
100
AcDbText
 10
812.4999982261396
 20
330.0000018299233
 30
0.0
 40
40.0
  1
デーンガードＭＴＴ２７５ＦＭ　収納
 41
0.7
  7
M7
 11
812.4999982261396
 21
350.0000018299233
 31
0.0
100
AcDbText
 73
     2
  0
TEXT
  5
3B1F
330
18
100
AcDbEntity
  8
1
100
AcDbText
 10
812.4999982261396
 20
405.0000018299233
 30
0.0
 40
40.0
  1
デーンベンチルＭＴＴ２５５ＦＭ　収納
 41
0.7
  7
M7
 11
812.4999982261396
 21
425.0000018299233
 31
0.0
100
AcDbText
 73
     2
  0
TEXT
  5
3B20
330
18
100
AcDbEntity
  8
1
100
AcDbText
 10
812.4999982261396
 20
255.0000018299233
 30
0.0
 40
40.0
  1
デーンレールＭ２Ｐ２５５ＦＭ
 41
0.7
  7
M7
 11
812.4999982261396
 21
275.0000018299233
 31
0.0
100
AcDbText
 73
     2
  0
LINE
  5
3B21
330
18
100
AcDbEntity
  8
WAKU-MOJI
  6
Continuous
100
AcDbLine
 10
774.9999982261397
 20
550.0000018299233
 30
0.0
 11
774.9999982261397
 21
162.5000018299233
 31
0.0
  0
TEXT
  5
3B22
330
18
100
AcDbEntity
  8
1
100
AcDbText
 10
876.0666648928063
 20
492.5000018299233
 30
0.0
 40
40.0
  1
アレスタ型式
 41
0.7
  7
M7
 72
     1
 11
974.9999982261398
 21
512.5000018299233
 31
0.0
100
AcDbText
 73
     2
  0
LINE
  5
3B23
330
18
100
AcDbEntity
  8
WAKU-MOJI
  6
Continuous
100
AcDbLine
 10
1524.99999822614
 20
550.0000018299233
 30
0.0
 11
1524.99999822614
 21
162.5000018299233
 31
0.0
  0
LINE
  5
3B24
330
18
100
AcDbEntity
  8
1
100
AcDbLine
 10
1524.99999822614
 20
237.5000018299233
 30
0.0
 11
3074.99999822614
 21
237.5000018299233
 31
0.0
  0
TEXT
  5
3B25
330
18
100
AcDbEntity
  8
WAKU-MOJI
  6
Continuous
100
AcDbText
 10
1724.999998226139
 20
180.0000018299233
 30
0.0
 40
40.0
  1
ＴＶ用直撃雷ＳＰＤ
 41
0.7
  7
M7
 11
1724.999998226139
 21
200.0000018299233
 31
0.0
100
AcDbText
 73
     2
  0
LINE
  5
3B26
330
18
100
AcDbEntity
  8
1
100
AcDbLine
 10
1524.99999822614
 20
475.0000018299233
 30
0.0
 11
3074.99999822614
 21
475.0000018299233
 31
0.0
  0
TEXT
  5
3B27
330
18
100
AcDbEntity
  8
WAKU-MOJI
  6
Continuous
100
AcDbText
 10
1724.999998226139
 20
405.0000018299233
 30
0.0
 40
40.0
  1
液面リレー用直撃雷ＳＰＤ
 41
0.7
  7
M7
 11
1724.999998226139
 21
425.0000018299233
 31
0.0
100
AcDbText
 73
     2
  0
TEXT
  5
3B28
330
18
100
AcDbEntity
  8
WAKU-MOJI
  6
Continuous
100
AcDbText
 10
1724.999998226139
 20
330.0000018299233
 30
0.0
 40
40.0
  1
信号用誘導雷ＳＰＤ
 41
0.7
  7
M7
 11
1724.999998226139
 21
350.0000018299233
 31
0.0
100
AcDbText
 73
     2
  0
TEXT
  5
3B29
330
18
100
AcDbEntity
  8
WAKU-MOJI
  6
Continuous
100
AcDbText
 10
1724.999998226139
 20
255.0000018299233
 30
0.0
 40
40.0
  1
信号用誘導雷ＳＰＤ
 41
0.7
  7
M7
 11
1724.999998226139
 21
275.0000018299233
 31
0.0
100
AcDbText
 73
     2
  0
TEXT
  5
3B2A
330
18
100
AcDbEntity
  8
WAKU-MOJI
  6
Continuous
100
AcDbText
 10
1724.999998226139
 20
105.0000018299233
 30
0.0
 40
40.0
  1
ＬＡＮ用誘導雷ＳＰＤ
 41
0.7
  7
M7
 11
1724.999998226139
 21
125.0000018299233
 31
0.0
100
AcDbText
 73
     2
  0
LINE
  5
3B2B
330
18
100
AcDbEntity
  8
1
100
AcDbLine
 10
1524.99999822614
 20
550.0000018299233
 30
0.0
 11
3074.99999822614
 21
550.0000018299233
 31
0.0
  0
LINE
  5
3B2C
330
18
100
AcDbEntity
  8
1
100
AcDbLine
 10
1524.99999822614
 20
87.50000182992335
 30
0.0
 11
3074.99999822614
 21
87.50000182992335
 31
0.0
  0
LINE
  5
3B2D
330
18
100
AcDbEntity
  8
1
100
AcDbLine
 10
1524.99999822614
 20
162.5000018299233
 30
0.0
 11
3074.99999822614
 21
162.5000018299233
 31
0.0
  0
LINE
  5
3B2E
330
18
100
AcDbEntity
  8
1
100
AcDbLine
 10
1524.99999822614
 20
387.5000018299233
 30
0.0
 11
3074.99999822614
 21
387.5000018299233
 31
0.0
  0
LINE
  5
3B2F
330
18
100
AcDbEntity
  8
1
100
AcDbLine
 10
1524.99999822614
 20
462.5000018299233
 30
0.0
 11
3074.99999822614
 21
462.5000018299233
 31
0.0
  0
LINE
  5
3B30
330
18
100
AcDbEntity
  8
1
100
AcDbLine
 10
1524.99999822614
 20
312.5000018299233
 30
0.0
 11
3074.99999822614
 21
312.5000018299233
 31
0.0
  0
TEXT
  5
3B31
330
18
100
AcDbEntity
  8
1
100
AcDbText
 10
1751.066664892806
 20
492.5000018299233
 30
0.0
 40
40.0
  1
アレスタ仕様
 41
0.7
  7
M7
 72
     1
 11
1849.999998226139
 21
512.5000018299233
 31
0.0
100
AcDbText
 73
     2
  0
LINE
  5
3B32
330
18
100
AcDbEntity
  8
WAKU-MOJI
  6
Continuous
100
AcDbLine
 10
1524.99999822614
 20
550.0000018299233
 30
0.0
 11
1524.99999822614
 21
162.5000018299233
 31
0.0
  0
LINE
  5
3B33
330
18
100
AcDbEntity
  8
WAKU-MOJI
  6
Continuous
100
AcDbLine
 10
1674.999998226139
 20
550.0000018299233
 30
0.0
 11
1674.999998226139
 21
162.5000018299233
 31
0.0
  0
TEXT
  5
3B34
330
18
100
AcDbEntity
  8
1
100
AcDbText
 10
1562.499998226139
 20
105.0000018299233
 30
0.0
 40
40.0
  1
10
 41
0.7
  7
M7
 11
1562.499998226139
 21
125.0000018299233
 31
0.0
100
AcDbText
 73
     2
  0
LINE
  5
3B35
330
18
100
AcDbEntity
  8
WAKU-MOJI
  6
Continuous
100
AcDbLine
 10
1524.99999822614
 20
162.5000018299233
 30
0.0
 11
1524.99999822614
 21
87.50000182992335
 31
0.0
  0
LINE
  5
3B36
330
18
100
AcDbEntity
  8
WAKU-MOJI
  6
Continuous
100
AcDbLine
 10
1674.999998226139
 20
162.5000018299233
 30
0.0
 11
1674.999998226139
 21
87.50000182992335
 31
0.0
  0
TEXT
  5
3B37
330
18
100
AcDbEntity
  8
1
100
AcDbText
 10
1562.499998226139
 20
255.0000018299233
 30
0.0
 40
40.0
  1
8
 41
0.7
  7
M7
 11
1562.499998226139
 21
275.0000018299233
 31
0.0
100
AcDbText
 73
     2
  0
TEXT
  5
3B38
330
18
100
AcDbEntity
  8
1
100
AcDbText
 10
1562.499998226139
 20
180.0000018299233
 30
0.0
 40
40.0
  1
9
 41
0.7
  7
M7
 11
1562.499998226139
 21
200.0000018299233
 31
0.0
100
AcDbText
 73
     2
  0
TEXT
  5
3B39
330
18
100
AcDbEntity
  8
1
100
AcDbText
 10
1562.499998226139
 20
330.0000018299233
 30
0.0
 40
40.0
  1
7
 41
0.7
  7
M7
 11
1562.499998226139
 21
350.0000018299233
 31
0.0
100
AcDbText
 73
     2
  0
TEXT
  5
3B3A
330
18
100
AcDbEntity
  8
1
100
AcDbText
 10
1557.633331559473
 20
492.5000018299233
 30
0.0
 40
40.0
  1
記号
 41
0.7
  7
M7
 72
     1
 11
1587.49999822614
 21
512.5000018299233
 31
0.0
100
AcDbText
 73
     2
  0
TEXT
  5
3B3B
330
18
100
AcDbEntity
  8
1
100
AcDbText
 10
1562.499998226139
 20
405.0000018299233
 30
0.0
 40
40.0
  1
6
 41
0.7
  7
M7
 11
1562.499998226139
 21
425.0000018299233
 31
0.0
100
AcDbText
 73
     2
  0
TEXT
  5
3B3C
330
18
100
AcDbEntity
  8
1
100
AcDbText
 10
2374.999998226139
 20
105.0000018299233
 30
0.0
 40
40.0
  1
デーンパッチＭ　ＣＬＥ　ＲＪ４５Ｂ４８
 41
0.7
  7
M7
 11
2374.999998226139
 21
125.0000018299233
 31
0.0
100
AcDbText
 73
     2
  0
TEXT
  5
3B3D
330
18
100
AcDbEntity
  8
1
100
AcDbText
 10
2374.999998226139
 20
180.0000018299233
 30
0.0
 40
40.0
  1
デーンゲートＧＦＦＴＶ
 41
0.7
  7
M7
 11
2374.999998226139
 21
200.0000018299233
 31
0.0
100
AcDbText
 73
     2
  0
TEXT
  5
3B3E
330
18
100
AcDbEntity
  8
1
100
AcDbText
 10
2374.999998226139
 20
330.0000018299233
 30
0.0
 40
40.0
  1
ブリッツダクターＸＴ　ＭＬ２ＢＥ／Ｓ２４
 41
0.7
  7
M7
 11
2374.999998226139
 21
350.0000018299233
 31
0.0
100
AcDbText
 73
     2
  0
TEXT
  5
3B3F
330
18
100
AcDbEntity
  8
1
100
AcDbText
 10
2374.999998226139
 20
405.0000018299233
 30
0.0
 40
40.0
  1
ブリッツダクターＸＴ　ＭＬ２ＢＥ／Ｓ１２
 41
0.7
  7
M7
 11
2374.999998226139
 21
425.0000018299233
 31
0.0
100
AcDbText
 73
     2
  0
TEXT
  5
3B40
330
18
100
AcDbEntity
  8
1
100
AcDbText
 10
2374.999998226139
 20
255.0000018299233
 30
0.0
 40
40.0
  1
ブリッツダクターＸＴ　ＭＬ２ＢＥ／Ｓ５
 41
0.7
  7
M7
 11
2374.999998226139
 21
275.0000018299233
 31
0.0
100
AcDbText
 73
     2
  0
TEXT
  5
3B41
330
18
100
AcDbEntity
  8
1
100
AcDbText
 10
2376.066664892806
 20
492.5000018299233
 30
0.0
 40
40.0
  1
アレスタ型式
 41
0.7
  7
M7
 72
     1
 11
2474.999998226139
 21
512.5000018299233
 31
0.0
100
AcDbText
 73
     2
  0
LINE
  5
3B42
330
18
100
AcDbEntity
  8
WAKU-MOJI
  6
Continuous
100
AcDbLine
 10
2274.999998226139
 20
550.0000018299233
 30
0.0
 11
2274.999998226139
 21
162.5000018299233
 31
0.0
  0
LINE
  5
3B43
330
18
100
AcDbEntity
  8
WAKU-MOJI
  6
Continuous
100
AcDbLine
 10
2274.999998226139
 20
162.5000018299233
 30
0.0
 11
2274.999998226139
 21
87.50000182992335
 31
0.0
  0
LINE
  5
3B44
330
18
100
AcDbEntity
  8
WAKU-MOJI
  6
Continuous
100
AcDbLine
 10
3074.99999822614
 20
550.0000018299233
 30
0.0
 11
3074.99999822614
 21
162.5000018299233
 31
0.0
  0
LINE
  5
3B45
330
18
100
AcDbEntity
  8
WAKU-MOJI
  6
Continuous
100
AcDbLine
 10
3074.99999822614
 20
162.5000018299233
 30
0.0
 11
3074.99999822614
 21
87.50000182992335
 31
0.0
  0
LINE
  5
3B46
330
18
100
AcDbEntity
  8
1
100
AcDbLine
 10
1524.99999822614
 20
87.50000182992335
 30
0.0
 11
3074.99999822614
 21
87.50000182992335
 31
0.0
  0
LINE
  5
3B47
330
18
100
AcDbEntity
  8
1
100
AcDbLine
 10
1524.99999822614
 20
12.50000182992335
 30
0.0
 11
3074.99999822614
 21
12.50000182992335
 31
0.0
  0
TEXT
  5
3B48
330
18
100
AcDbEntity
  8
WAKU-MOJI
  6
Continuous
100
AcDbText
 10
1724.999998226139
 20
30.00000182992335
 30
0.0
 40
40.0
  1
電話回線用ＳＰＤ
 41
0.7
  7
M7
 11
1724.999998226139
 21
50.00000182992335
 31
0.0
100
AcDbText
 73
     2
  0
LINE
  5
3B49
330
18
100
AcDbEntity
  8
WAKU-MOJI
  6
Continuous
100
AcDbLine
 10
1674.999998226139
 20
87.50000182992335
 30
0.0
 11
1674.999998226139
 21
12.50000182992335
 31
0.0
  0
LINE
  5
3B4B
330
18
100
AcDbEntity
  8
WAKU-MOJI
  6
Continuous
100
AcDbLine
 10
1524.99999822614
 20
87.50000182992335
 30
0.0
 11
1524.99999822614
 21
12.50000182992335
 31
0.0
  0
TEXT
  5
3B4C
330
18
100
AcDbEntity
  8
1
100
AcDbText
 10
1562.499998226139
 20
30.00000182992335
 30
0.0
 40
40.0
  1
11
 41
0.7
  7
M7
 11
1562.499998226139
 21
50.00000182992335
 31
0.0
100
AcDbText
 73
     2
  0
TEXT
  5
3B4D
330
18
100
AcDbEntity
  8
1
100
AcDbText
 10
2374.999998226139
 20
30.00000182992335
 30
0.0
 40
40.0
  1
デーンリンク　ＴＣ　ＥＣＯ　ＲＪ１２
 41
0.7
  7
M7
 11
2374.999998226139
 21
50.00000182992335
 31
0.0
100
AcDbText
 73
     2
  0
LINE
  5
3B4E
330
18
100
AcDbEntity
  8
WAKU-MOJI
  6
Continuous
100
AcDbLine
 10
2274.999998226139
 20
87.50000182992335
 30
0.0
 11
2274.999998226139
 21
12.50000182992335
 31
0.0
  0
LINE
  5
3B4F
330
18
100
AcDbEntity
  8
WAKU-MOJI
  6
Continuous
100
AcDbLine
 10
3074.99999822614
 20
87.50000182992335
 30
0.0
 11
3074.99999822614
 21
12.50000182992335
 31
0.0
  0
TEXT
  5
3B50
330
18
100
AcDbEntity
  8
1
100
AcDbText
 10
812.4999982261396
 20
105.0000018299233
 30
0.0
 40
40.0
  1
ブリッツダクターＸＴ ＭＬ２ＢＤ１８０
 41
0.7
  7
M7
 11
812.4999982261396
 21
125.0000018299233
 31
0.0
100
AcDbText
 73
     2
  0
LINE
  5
3B52
330
18
100
AcDbEntity
  8
1
370
    35
100
AcDbLine
 10
3225.0
 20
1862.5
 30
0.0
 11
3225.0
 21
1400.0
 31
0.0
  0
LINE
  5
3B53
330
18
100
AcDbEntity
  8
1
370
    35
100
AcDbLine
 10
3225.0
 20
1400.0
 30
0.0
 11
3500.0
 21
1400.0
 31
0.0
  0
LINE
  5
3B54
330
18
100
AcDbEntity
  8
1
370
    35
100
AcDbLine
 10
3500.0
 20
1400.0
 30
0.0
 11
3500.0
 21
850.0
 31
0.0
  0
LWPOLYLINE
  5
3B57
330
18
100
AcDbEntity
  8
1
100
AcDbPolyline
 90
        4
 70
     1
 43
0.0
 10
400.0
 20
825.0
 10
450.0
 20
825.0
 10
450.0
 20
725.0
 10
400.0
 20
725.0
  0
LINE
  5
3B58
330
18
100
AcDbEntity
  8
1
100
AcDbLine
 10
437.5
 20
787.5
 30
0.0
 11
425.0
 21
737.5
 31
0.0
  0
HATCH
  5
3B59
330
18
100
AcDbEntity
  8
1
100
AcDbHatch
 10
0.0
 20
0.0
 30
0.0
210
0.0
220
0.0
230
1.0
  2
ANSI31
 70
     0
 71
     0
 91
        2
 92
        7
 72
     0
 73
     1
 93
        3
 10
425.0
 20
737.5000000000002
 10
428.125
 20
750.0
 10
412.5
 20
750.0
 97
        0
 92
        7
 72
     0
 73
     1
 93
        3
 10
437.4999999999998
 20
750.0
 10
428.125
 20
750.0
 10
425.0
 20
737.5
 97
        0
 75
     0
 76
     1
 52
0.0
 41
0.5
 77
     0
 78
     1
 53
45.0
 43
-75.0
 44
-375.0
 45
-1.122532015133643
 46
1.122532015133644
 79
     0
 47
0.668826438124856
 98
        2
 10
422.7931646301239
 20
744.7660988822954
 10
430.1557467404018
 20
746.1037548065769
  0
LINE
  5
3B5A
330
18
100
AcDbEntity
  8
1
100
AcDbLine
 10
412.5
 20
750.0
 30
0.0
 11
437.5
 21
750.0
 31
0.0
  0
LINE
  5
3B5B
330
18
100
AcDbEntity
  8
1
100
AcDbLine
 10
425.0
 20
737.5
 30
0.0
 11
437.5
 21
750.0
 31
0.0
  0
LINE
  5
3B5C
330
18
100
AcDbEntity
  8
1
100
AcDbLine
 10
425.0
 20
737.5
 30
0.0
 11
412.5
 21
750.0
 31
0.0
  0
LINE
  5
3B5D
330
18
100
AcDbEntity
  8
1
100
AcDbLine
 10
412.5
 20
762.5
 30
0.0
 11
437.5
 21
787.5
 31
0.0
  0
LINE
  5
3B5E
330
18
100
AcDbEntity
  8
1
100
AcDbLine
 10
425.0
 20
812.5
 30
0.0
 11
412.5
 21
762.5
 31
0.0
  0
LWPOLYLINE
  5
3B5F
330
18
100
AcDbEntity
  8
1
100
AcDbPolyline
 90
        4
 70
     1
 43
0.0
 10
400.0
 20
700.0
 10
450.0
 20
700.0
 10
450.0
 20
600.0
 10
400.0
 20
600.0
  0
LINE
  5
3B60
330
18
100
AcDbEntity
  8
1
100
AcDbLine
 10
425.0
 20
625.0
 30
0.0
 11
425.0
 21
687.5
 31
0.0
  0
HATCH
  5
3B61
330
18
100
AcDbEntity
  8
1
100
AcDbHatch
 10
0.0
 20
0.0
 30
0.0
210
0.0
220
0.0
230
1.0
  2
ANSI31
 70
     0
 71
     0
 91
        2
 92
        7
 72
     0
 73
     1
 93
        3
 10
425.0
 20
612.5
 10
428.125
 20
625.0
 10
412.5
 20
625.0
 97
        0
 92
        7
 72
     0
 73
     1
 93
        3
 10
437.5
 20
625.0
 10
428.125
 20
625.0
 10
425.0
 20
612.5
 97
        0
 75
     0
 76
     1
 52
0.0
 41
0.5
 77
     0
 78
     1
 53
45.0
 43
-75.0
 44
-500.0
 45
-1.122532015133643
 46
1.122532015133644
 79
     0
 47
0.668826438124856
 98
        2
 10
422.7931646301239
 20
619.7660988822954
 10
430.1557467404018
 20
621.1037548065769
  0
LINE
  5
3B62
330
18
100
AcDbEntity
  8
1
100
AcDbLine
 10
425.0
 20
612.5
 30
0.0
 11
437.5
 21
625.0
 31
0.0
  0
LINE
  5
3B63
330
18
100
AcDbEntity
  8
1
100
AcDbLine
 10
425.0
 20
612.5
 30
0.0
 11
412.5
 21
625.0
 31
0.0
  0
LINE
  5
3B64
330
18
100
AcDbEntity
  8
1
100
AcDbLine
 10
412.5
 20
625.0
 30
0.0
 11
437.5
 21
625.0
 31
0.0
  0
TEXT
  5
3B65
330
18
100
AcDbEntity
  8
1
100
AcDbText
 10
100.0000025788522
 20
762.4999986779239
 30
0.0
 40
40.0
  1
直撃雷用アレスタ
 41
0.7
  7
M7
100
AcDbText
  0
TEXT
  5
3B66
330
18
100
AcDbEntity
  8
1
100
AcDbText
 10
100.0000025788522
 20
637.4999986779239
 30
0.0
 40
40.0
  1
誘導雷用アレスタ
 41
0.7
  7
M7
100
AcDbText
  0
TEXT
  5
3B6F
330
18
100
AcDbEntity
  8
1
100
AcDbText
 10
2202.166667257432
 20
1017.500003254851
 30
0.0
 40
40.0
  1
1000base-T
 41
0.7
  7
M7
 72
     1
 11
2337.500000590766
 21
1037.500003254851
 31
0.0
100
AcDbText
 73
     2
  0
LINE
  5
3B70
330
18
100
AcDbEntity
  8
1
  6
DASHED
100
AcDbLine
 10
2725.0
 20
1087.5
 30
0.0
 11
2725.0
 21
1400.0
 31
0.0
  0
LINE
  5
3B71
330
18
100
AcDbEntity
  8
1
100
AcDbLine
 10
2700.0
 20
1087.5
 30
0.0
 11
2750.0
 21
1087.5
 31
0.0
  0
LINE
  5
3B72
330
18
100
AcDbEntity
  8
1
100
AcDbLine
 10
2710.0
 20
1062.5
 30
0.0
 11
2740.0
 21
1062.5
 31
0.0
  0
LINE
  5
3B73
330
18
100
AcDbEntity
  8
1
100
AcDbLine
 10
2720.0
 20
1037.5
 30
0.0
 11
2730.0
 21
1037.5
 31
0.0
  0
LINE
  5
3B74
330
18
100
AcDbEntity
  8
1
  6
DASHED
100
AcDbLine
 10
2450.0
 20
1400.0
 30
0.0
 11
2725.0
 21
1400.0
 31
0.0
  0
TEXT
  5
3B75
330
18
100
AcDbEntity
  8
1
100
AcDbText
 10
658.3666672574326
 20
2142.500003254851
 30
0.0
 40
40.0
  1
3φ3W
 41
0.7
  7
M7
 72
     1
 11
712.5000005907659
 21
2162.500003254851
 31
0.0
100
AcDbText
 73
     2
  0
TEXT
  5
3B76
330
18
100
AcDbEntity
  8
1
100
AcDbText
 10
183.3666672574325
 20
2142.500003254851
 30
0.0
 40
40.0
  1
1φ3W
 41
0.7
  7
M7
 72
     1
 11
237.5000005907659
 21
2162.500003254851
 31
0.0
100
AcDbText
 73
     2
  0
LINE
  5
3B9C
330
18
100
AcDbEntity
  8
1
  6
DASHED
100
AcDbLine
 10
3762.5
 20
500.0
 30
0.0
 11
3762.5
 21
650.0
 31
0.0
  0
LINE
  5
3B9D
330
18
100
AcDbEntity
  8
1
  6
DASHED
100
AcDbLine
 10
3637.5
 20
500.0
 30
0.0
 11
3762.5
 21
500.0
 31
0.0
  0
LINE
  5
3B9E
330
18
100
AcDbEntity
  8
1
  6
DASHED
100
AcDbLine
 10
3637.5
 20
500.0
 30
0.0
 11
3637.5
 21
587.5
 31
0.0
  0
LINE
  5
3BA3
330
18
100
AcDbEntity
  8
1
100
AcDbLine
 10
2000.0
 20
2387.5
 30
0.0
 11
2000.0
 21
2250.0
 31
0.0
  0
LINE
  5
3BA4
330
18
100
AcDbEntity
  8
1
100
AcDbLine
 10
2000.0
 20
2250.0
 30
0.0
 11
2525.0
 21
2250.0
 31
0.0
  0
TEXT
  5
3BA6
330
18
100
AcDbEntity
  8
1
100
AcDbText
 10
2526.000004399358
 20
2305.000005636598
 30
0.0
 40
40.0
  1
LPZ1
 41
0.7
  7
M7
 72
     1
 11
2575.000004399358
 21
2325.000005636598
 31
0.0
100
AcDbText
 73
     2
  0
TEXT
  5
3BA7
330
18
100
AcDbEntity
  8
1
100
AcDbText
 10
3863.500004399358
 20
2317.500005636599
 30
0.0
 40
40.0
  1
LPZ1
 41
0.7
  7
M7
 72
     1
 11
3912.500004399358
 21
2337.500005636598
 31
0.0
100
AcDbText
 73
     2
  0
TEXT
  5
3BA8
330
18
100
AcDbEntity
  8
1
100
AcDbText
 10
3863.500004399358
 20
917.5000056365988
 30
0.0
 40
40.0
  1
LPZ1
 41
0.7
  7
M7
 72
     1
 11
3912.500004399358
 21
937.5000056365989
 31
0.0
100
AcDbText
 73
     2
  0
TEXT
  5
3BAA
330
18
100
AcDbEntity
  8
1
100
AcDbText
 10
1426.666667257432
 20
1055.000003254851
 30
0.0
 40
40.0
  1
3P
 41
0.7
  7
M7
 72
     1
 11
1450.000000590766
 21
1075.000003254851
 31
0.0
100
AcDbText
 73
     2
  0
TEXT
  5
3BAB
330
18
100
AcDbEntity
  8
1
100
AcDbText
 10
1426.666667257432
 20
980.0000032548513
 30
0.0
 40
40.0
  1
3P
 41
0.7
  7
M7
 72
     1
 11
1450.000000590766
 21
1000.000003254851
 31
0.0
100
AcDbText
 73
     2
  0
TEXT
  5
3BAC
330
18
100
AcDbEntity
  8
1
100
AcDbText
 10
1426.666667257432
 20
780.0000032548514
 30
0.0
 40
40.0
  1
3P
 41
0.7
  7
M7
 72
     1
 11
1450.000000590766
 21
800.0000032548514
 31
0.0
100
AcDbText
 73
     2
  0
TEXT
  5
3BAD
330
18
100
AcDbEntity
  8
1
100
AcDbText
 10
1676.666667257432
 20
842.5000032548513
 30
0.0
 40
40.0
  1
3P
 41
0.7
  7
M7
 72
     1
 11
1700.000000590765
 21
862.5000032548514
 31
0.0
100
AcDbText
 73
     2
  0
TEXT
  5
3BAE
330
18
100
AcDbEntity
  8
1
100
AcDbText
 10
1676.666667257432
 20
780.0000032548514
 30
0.0
 40
40.0
  1
3P
 41
0.7
  7
M7
 72
     1
 11
1700.000000590765
 21
800.0000032548514
 31
0.0
100
AcDbText
 73
     2
  0
TEXT
  5
3BAF
330
18
100
AcDbEntity
  8
1
100
AcDbText
 10
1676.666667257432
 20
717.5000032548514
 30
0.0
 40
40.0
  1
3P
 41
0.7
  7
M7
 72
     1
 11
1700.000000590765
 21
737.5000032548514
 31
0.0
100
AcDbText
 73
     2
  0
LINE
  5
3BB0
330
18
100
AcDbEntity
  8
1
100
AcDbLine
 10
2325.0
 20
1137.499999999999
 30
0.0
 11
2325.0
 21
1200.0
 31
0.0
  0
LWPOLYLINE
  5
3BB1
330
18
100
AcDbEntity
  8
1
100
AcDbPolyline
 90
        4
 70
     1
 43
0.0
 10
2300.0
 20
1212.5
 10
2350.0
 20
1212.5
 10
2350.0
 20
1112.5
 10
2300.0
 20
1112.5
  0
HATCH
  5
3BB2
330
18
100
AcDbEntity
  8
1
100
AcDbHatch
 10
0.0
 20
0.0
 30
0.0
210
0.0
220
0.0
230
1.0
  2
ANSI31
 70
     0
 71
     0
 91
        2
 92
        7
 72
     0
 73
     1
 93
        3
 10
2325.0
 20
1125.0
 10
2328.125
 20
1137.499999999999
 10
2312.5
 20
1137.499999999999
 97
        0
 92
        7
 72
     0
 73
     1
 93
        3
 10
2337.499999999999
 20
1137.499999999999
 10
2328.125
 20
1137.499999999999
 10
2325.0
 20
1125.0
 97
        0
 75
     0
 76
     1
 52
0.0
 41
0.5
 77
     0
 78
     1
 53
45.0
 43
1825.0
 44
12.5
 45
-1.122532015133643
 46
1.122532015133644
 79
     0
 47
0.668826438124856
 98
        2
 10
2322.793164630124
 20
1132.266098882295
 10
2330.155746740401
 20
1133.603754806576
  0
LINE
  5
3BB3
330
18
100
AcDbEntity
  8
1
100
AcDbLine
 10
2312.5
 20
1137.499999999999
 30
0.0
 11
2337.499999999999
 21
1137.499999999999
 31
0.0
  0
LINE
  5
3BB4
330
18
100
AcDbEntity
  8
1
100
AcDbLine
 10
2325.0
 20
1125.0
 30
0.0
 11
2337.499999999999
 21
1137.499999999999
 31
0.0
  0
LINE
  5
3BB5
330
18
100
AcDbEntity
  8
1
  6
DASHED
100
AcDbLine
 10
2325.0
 20
1212.5
 30
0.0
 11
2325.0
 21
1275.0
 31
0.0
  0
LINE
  5
3BB6
330
18
100
AcDbEntity
  8
1
100
AcDbLine
 10
2325.0
 20
1125.0
 30
0.0
 11
2312.5
 21
1137.499999999999
 31
0.0
  0
LINE
  5
3BB7
330
18
100
AcDbEntity
  8
1
  6
DASHED
100
AcDbLine
 10
2325.0
 20
1275.0
 30
0.0
 11
2400.0
 21
1275.0
 31
0.0
  0
LINE
  5
3BB8
330
18
100
AcDbEntity
  8
1
  6
DASHED
100
AcDbLine
 10
2400.0
 20
1225.0
 30
0.0
 11
2400.0
 21
1275.0
 31
0.0
  0
TEXT
  5
3BB9
330
18
100
AcDbEntity
  8
1
100
AcDbText
 10
2251.666667257432
 20
1242.500003254851
 30
0.0
 40
40.0
  1
10
 41
0.7
  7
M7
 72
     1
 11
2275.000000590766
 21
1262.500003254851
 31
0.0
100
AcDbText
 73
     2
  0
CIRCLE
  5
3BBA
330
18
100
AcDbEntity
  8
1
100
AcDbCircle
 10
2275.0
 20
1262.5
 30
0.0
 40
40.0
  0
LINE
  5
3BBB
330
18
100
AcDbEntity
  8
1
100
AcDbLine
 10
1925.0
 20
1475.0
 30
0.0
 11
1925.0
 21
1537.5
 31
0.0
  0
LWPOLYLINE
  5
3BBC
330
18
100
AcDbEntity
  8
1
100
AcDbPolyline
 90
        4
 70
     1
 43
0.0
 10
1900.0
 20
1550.0
 10
1950.0
 20
1550.0
 10
1950.0
 20
1450.0
 10
1900.0
 20
1450.0
  0
LINE
  5
3BBD
330
18
100
AcDbEntity
  8
1
100
AcDbLine
 10
1925.0
 20
1462.5
 30
0.0
 11
1937.5
 21
1475.0
 31
0.0
  0
HATCH
  5
3BBE
330
18
100
AcDbEntity
  8
1
100
AcDbHatch
 10
0.0
 20
0.0
 30
0.0
210
0.0
220
0.0
230
1.0
  2
ANSI31
 70
     0
 71
     0
 91
        2
 92
        7
 72
     0
 73
     1
 93
        3
 10
1925.0
 20
1462.5
 10
1928.125
 20
1475.0
 10
1912.5
 20
1475.0
 97
        0
 92
        7
 72
     0
 73
     1
 93
        3
 10
1937.5
 20
1475.0
 10
1928.125
 20
1475.0
 10
1925.0
 20
1462.5
 97
        0
 75
     0
 76
     1
 52
0.0
 41
0.5
 77
     0
 78
     1
 53
45.0
 43
1425.0
 44
350.0
 45
-1.122532015133643
 46
1.122532015133644
 79
     0
 47
0.668826438124856
 98
        2
 10
1922.793164630124
 20
1469.766098882295
 10
1930.155746740402
 20
1471.103754806577
  0
LINE
  5
3BBF
330
18
100
AcDbEntity
  8
1
100
AcDbLine
 10
1925.0
 20
1462.5
 30
0.0
 11
1912.5
 21
1475.0
 31
0.0
  0
LINE
  5
3BC0
330
18
100
AcDbEntity
  8
1
100
AcDbLine
 10
1912.5
 20
1475.0
 30
0.0
 11
1937.5
 21
1475.0
 31
0.0
  0
LINE
  5
3BC1
330
18
100
AcDbEntity
  8
WAKU-MOJI
  6
Continuous
100
AcDbLine
 10
2000.000006578056
 20
1512.50000085728
 30
0.0
 11
1975.000006578056
 21
1512.50000085728
 31
0.0
  0
LINE
  5
3BC2
330
18
100
AcDbEntity
  8
WAKU-MOJI
  6
Continuous
100
AcDbLine
 10
1975.000006578056
 20
1487.50000085728
 30
0.0
 11
2000.000006578056
 21
1487.50000085728
 31
0.0
  0
LINE
  5
3BC3
330
18
100
AcDbEntity
  8
WAKU-MOJI
  6
Continuous
100
AcDbLine
 10
1975.000006578056
 20
1512.50000085728
 30
0.0
 11
1975.000006578056
 21
1487.50000085728
 31
0.0
  0
LINE
  5
3BC4
330
18
100
AcDbEntity
  8
WAKU-MOJI
  6
Continuous
100
AcDbLine
 10
2000.000006578056
 20
1487.50000085728
 30
0.0
 11
2000.000006578056
 21
1512.50000085728
 31
0.0
  0
LINE
  5
3BC5
330
18
100
AcDbEntity
  8
1
370
    30
100
AcDbLine
 10
2000.0
 20
1500.0
 30
0.0
 11
2050.0
 21
1500.0
 31
0.0
  0
LINE
  5
3BC6
330
18
100
AcDbEntity
  8
1
  6
DASHED
100
AcDbLine
 10
1925.0
 20
1550.0
 30
0.0
 11
1925.0
 21
1575.0
 31
0.0
  0
CIRCLE
  5
3BC7
330
18
100
AcDbEntity
  8
1
100
AcDbCircle
 10
1975.0
 20
1412.5
 30
0.0
 40
40.0
  0
TEXT
  5
3BC8
330
18
100
AcDbEntity
  8
1
100
AcDbText
 10
1951.666667257432
 20
1392.500003254851
 30
0.0
 40
40.0
  1
10
 41
0.7
  7
M7
 72
     1
 11
1975.000000590766
 21
1412.500003254851
 31
0.0
100
AcDbText
 73
     2
  0
TEXT
  5
3BD3
330
18
100
AcDbEntity
  8
1
100
AcDbText
 10
1737.310294311095
 20
2731.160070876561
 30
0.0
 40
25.0
  1
A
 41
0.7
  7
M7
100
AcDbText
  0
TEXT
  5
3BD4
330
18
100
AcDbEntity
  8
1
100
AcDbText
 10
1673.666671066025
 20
2505.000005636599
 30
0.0
 40
40.0
  1
LPZ0
 41
0.7
  7
M7
 72
     1
 11
1725.000004399358
 21
2525.000005636599
 31
0.0
100
AcDbText
 73
     2
  0
TEXT
  5
3BD5
330
18
100
AcDbEntity
  8
1
100
AcDbText
 10
1787.310294311095
 20
2506.160070876561
 30
0.0
 40
25.0
  1
B
 41
0.7
  7
M7
100
AcDbText
  0
LINE
  5
3BF4
330
18
100
AcDbEntity
  8
1
100
AcDbLine
 10
1600.0
 20
2787.5
 30
0.0
 11
1600.0
 21
2712.5
 31
0.0
  0
LINE
  5
3BF5
330
18
100
AcDbEntity
  8
1
100
AcDbLine
 10
1600.0
 20
2712.5
 30
0.0
 11
1762.5
 21
2712.5
 31
0.0
  0
LINE
  5
3BF6
330
18
100
AcDbEntity
  8
1
100
AcDbLine
 10
1762.5
 20
2712.5
 30
0.0
 11
1762.5
 21
2787.5
 31
0.0
  0
LINE
  5
3BF7
330
18
100
AcDbEntity
  8
1
100
AcDbLine
 10
1762.5
 20
2787.5
 30
0.0
 11
1600.0
 21
2787.5
 31
0.0
  0
LINE
  5
3BF8
330
18
100
AcDbEntity
  8
1
100
AcDbLine
 10
1812.5
 20
2487.5
 30
0.0
 11
1812.5
 21
2562.5
 31
0.0
  0
LINE
  5
3BF9
330
18
100
AcDbEntity
  8
1
100
AcDbLine
 10
1812.5
 20
2562.5
 30
0.0
 11
1650.0
 21
2562.5
 31
0.0
  0
LINE
  5
3BFA
330
18
100
AcDbEntity
  8
1
100
AcDbLine
 10
1650.0
 20
2562.5
 30
0.0
 11
1650.0
 21
2487.5
 31
0.0
  0
LINE
  5
3BFB
330
18
100
AcDbEntity
  8
1
100
AcDbLine
 10
1650.0
 20
2487.5
 30
0.0
 11
1812.5
 21
2487.5
 31
0.0
  0
LINE
  5
3BFC
330
18
100
AcDbEntity
  8
1
100
AcDbLine
 10
2650.0
 20
2287.5
 30
0.0
 11
2650.0
 21
2362.5
 31
0.0
  0
LINE
  5
3BFD
330
18
100
AcDbEntity
  8
1
100
AcDbLine
 10
2650.0
 20
2362.5
 30
0.0
 11
2500.0
 21
2362.5
 31
0.0
  0
LINE
  5
3BFE
330
18
100
AcDbEntity
  8
1
100
AcDbLine
 10
2500.0
 20
2362.5
 30
0.0
 11
2500.0
 21
2287.5
 31
0.0
  0
LINE
  5
3BFF
330
18
100
AcDbEntity
  8
1
100
AcDbLine
 10
2500.0
 20
2287.5
 30
0.0
 11
2650.0
 21
2287.5
 31
0.0
  0
LINE
  5
3C00
330
18
100
AcDbEntity
  8
1
100
AcDbLine
 10
3837.5
 20
2375.0
 30
0.0
 11
3837.5
 21
2300.0
 31
0.0
  0
LINE
  5
3C01
330
18
100
AcDbEntity
  8
1
100
AcDbLine
 10
3837.5
 20
2300.0
 30
0.0
 11
3975.0
 21
2300.0
 31
0.0
  0
LINE
  5
3C02
330
18
100
AcDbEntity
  8
1
100
AcDbLine
 10
3975.0
 20
2375.0
 30
0.0
 11
3837.5
 21
2375.0
 31
0.0
  0
LINE
  5
3C03
330
18
100
AcDbEntity
  8
1
100
AcDbLine
 10
3975.0
 20
2300.0
 30
0.0
 11
3975.0
 21
2375.0
 31
0.0
  0
LINE
  5
3C04
330
18
100
AcDbEntity
  8
1
100
AcDbLine
 10
3837.5
 20
975.0
 30
0.0
 11
3837.5
 21
900.0
 31
0.0
  0
LINE
  5
3C05
330
18
100
AcDbEntity
  8
1
100
AcDbLine
 10
3837.5
 20
900.0
 30
0.0
 11
3975.0
 21
900.0
 31
0.0
  0
LINE
  5
3C06
330
18
100
AcDbEntity
  8
1
100
AcDbLine
 10
3975.0
 20
975.0
 30
0.0
 11
3837.5
 21
975.0
 31
0.0
  0
LINE
  5
3C07
330
18
100
AcDbEntity
  8
1
100
AcDbLine
 10
3975.0
 20
900.0
 30
0.0
 11
3975.0
 21
975.0
 31
0.0
  0
LINE
  5
3C08
330
18
100
AcDbEntity
  8
1
100
AcDbLine
 10
75.0
 20
2325.0
 30
0.0
 11
75.0
 21
2250.0
 31
0.0
  0
TEXT
  5
3C09
330
18
100
AcDbEntity
  8
1
100
AcDbText
 10
101.0000043993586
 20
2267.500005636598
 30
0.0
 40
40.0
  1
LPZ1
 41
0.7
  7
M7
 72
     1
 11
150.0000043993586
 21
2287.500005636598
 31
0.0
100
AcDbText
 73
     2
  0
LINE
  5
3C0A
330
18
100
AcDbEntity
  8
1
100
AcDbLine
 10
225.0
 20
2250.0
 30
0.0
 11
225.0
 21
2325.0
 31
0.0
  0
LINE
  5
3C0B
330
18
100
AcDbEntity
  8
1
100
AcDbLine
 10
75.0
 20
2250.0
 30
0.0
 11
225.0
 21
2250.0
 31
0.0
  0
LINE
  5
3C0C
330
18
100
AcDbEntity
  8
1
100
AcDbLine
 10
225.0
 20
2325.0
 30
0.0
 11
75.0
 21
2325.0
 31
0.0
  0
LINE
  5
3C20
330
18
100
AcDbEntity
  8
1
100
AcDbLine
 10
1125.0
 20
2025.0
 30
0.0
 11
1125.0
 21
2087.499999999999
 31
0.0
  0
LWPOLYLINE
  5
3C21
330
18
100
AcDbEntity
  8
1
100
AcDbPolyline
 90
        9
 70
     0
 43
2.0
 10
1000.0
 20
2400.0
 10
50.0
 20
2400.0
 10
50.0
 20
1150.0
 10
1000.0
 20
1150.0
 10
1000.0
 20
2400.0
 10
2675.0
 20
2400.0
 10
2675.0
 20
575.0
 10
1000.0
 20
575.0
 10
1000.0
 20
1150.0
  0
LWPOLYLINE
  5
3C22
330
18
100
AcDbEntity
  8
1
100
AcDbPolyline
 90
        5
 70
     0
 43
2.0
 10
4000.0
 20
2400.0
 10
4000.0
 20
1350.0
 10
2900.0
 20
1350.0
 10
2900.0
 20
2400.0
 10
4000.0
 20
2400.0
  0
LWPOLYLINE
  5
3C23
330
18
100
AcDbEntity
  8
1
100
AcDbPolyline
 90
        5
 70
     0
 43
2.0
 10
3100.0
 20
1150.0
 10
4000.0
 20
1150.0
 10
4000.0
 20
437.5
 10
3100.0
 20
437.5
 10
3100.0
 20
1150.0
  0
VIEWPORT
  5
2BFB
330
15
100
AcDbEntity
 67
     1
  8
0
  6
DASHED
100
AcDbViewport
 10
142.5892486572265
 20
99.1129140853882
 30
0.0
 40
376.3158339463271
 41
211.9479984295405
 68
     2
 69
     1
 12
142.5892486572265
 22
99.1129140853882
 13
0.0
 23
0.0
 14
10.0
 24
10.0
 15
10.0
 25
10.0
 16
0.0
 26
0.0
 36
1.0
 17
0.0
 27
0.0
 37
0.0
 42
50.0
 43
0.0
 44
0.0
 45
211.9479984295405
 50
0.0
 51
0.0
 72
   500
 90
    32800
  1

281
     0
 71
     1
 74
     0
110
0.0
120
0.0
130
0.0
111
1.0
121
0.0
131
0.0
112
0.0
122
1.0
132
0.0
 79
     0
146
0.0
  0
VIEWPORT
  5
2BFD
330
15
100
AcDbEntity
 67
     1
  8
1
  6
DASHED
100
AcDbViewport
 10
142.5892491340637
 20
99.11291456222535
 30
0.0
 40
228.1427986145019
 41
158.5806632995605
 68
     1
 69
     2
 12
2040.9
 22
1430.166689975629
 13
0.0
 23
0.0
 14
25.0
 24
25.0
 15
50.0
 25
50.0
 16
0.0
 26
0.0
 36
1.0
 17
0.0
 27
0.0
 37
0.0
 42
50.0
 43
0.0
 44
0.0
 45
2896.388002387618
 50
0.0
 51
0.0
 72
   500
 90
    33280
  1

281
     0
 71
     1
 74
     0
110
0.0
120
0.0
130
0.0
111
1.0
121
0.0
131
0.0
112
0.0
122
1.0
132
0.0
 79
     0
146
0.0
  0
ENDSEC
  0
SECTION
  2
OBJECTS
  0
DICTIONARY
  5
C
330
0
100
AcDbDictionary
281
     1
  3
ACAD_GROUP
350
D
  3
ACAD_LAYOUT
350
28B9
  3
ACAD_MLINESTYLE
350
E
  3
ACAD_PLOTSETTINGS
350
28BA
  3
ACAD_PLOTSTYLENAME
350
28B7
  3
AcDbVariableDictionary
350
3596
  0
DICTIONARY
  5
D
102
{ACAD_REACTORS
330
C
102
}
330
C
100
AcDbDictionary
281
     1
  0
DICTIONARY
  5
28B9
102
{ACAD_REACTORS
330
C
102
}
330
C
100
AcDbDictionary
281
     1
  3
Model
350
28BB
  3
ﾚｲｱｳﾄ1
350
28BC
  0
DICTIONARY
  5
E
102
{ACAD_REACTORS
330
C
102
}
330
C
100
AcDbDictionary
281
     1
  3
STANDARD
350
1B
  0
DICTIONARY
  5
28BA
102
{ACAD_REACTORS
330
C
102
}
330
C
100
AcDbDictionary
281
     1
  0
ACDBDICTIONARYWDFLT
  5
28B7
102
{ACAD_REACTORS
330
C
102
}
330
C
100
AcDbDictionary
281
     1
  3
Normal
350
28B8
100
AcDbDictionaryWithDefault
340
28B8
  0
DICTIONARY
  5
3596
102
{ACAD_REACTORS
330
C
102
}
330
C
100
AcDbDictionary
281
     1
  3
SORTENTS
350
3597
  0
LAYOUT
  5
28BB
102
{ACAD_REACTORS
330
28B9
102
}
330
28B9
100
AcDbPlotSettings
  1

  2
iR C5870
  4
A4
  6

 40
5.873749732971191
 41
5.873747825622558
 42
5.873748779296875
 43
5.873748779296875
 44
209.9733276367187
 45
296.9259948730469
 46
0.0
 47
0.0
 48
0.0
 49
0.0
140
4050.0
141
2800.0
142
1.0
143
14.20163169592173
 70
 11952
 72
     1
 73
     1
 74
     4
  7
monochrome.ctb
 75
     0
147
0.0704144440168216
148
0.0
149
0.0
100
AcDbLayout
  1
Model
 70
     1
 71
     0
 10
0.0
 20
0.0
 11
12.0
 21
9.0
 12
0.0
 22
0.0
 32
0.0
 14
0.0
 24
0.0
 34
0.0
 15
0.0
 25
0.0
 35
0.0
146
0.0
 13
0.0
 23
0.0
 33
0.0
 16
1.0
 26
0.0
 36
0.0
 17
0.0
 27
1.0
 37
0.0
 76
     0
330
18
  0
LAYOUT
  5
28BC
102
{ACAD_REACTORS
330
28B9
102
}
330
28B9
100
AcDbPlotSettings
  1

  2
\\Cad1\Canon LBP-850
  4
A4
  6

 40
5.873749732971191
 41
5.873747825622558
 42
5.873748779296875
 43
5.873748779296875
 44
209.9733276367187
 45
296.9259948730469
 46
0.0
 47
0.0
 48
0.0
 49
0.0
140
0.0
141
0.0
142
1.0
143
1.0
 70
   688
 72
     1
 73
     1
 74
     5
  7
monochrome.ctb
 75
    16
147
1.0
148
0.0
149
0.0
100
AcDbLayout
  1
ﾚｲｱｳﾄ1
 70
     0
 71
     1
 10
-5.873748779296875
 20
-5.873749732971191
 11
291.05224609375
 21
204.0995779037475
 12
0.0
 22
0.0
 32
0.0
 14
28.50543971293507
 24
19.81543140396922
 34
-0.0015258207003583
 15
256.6730589841873
 25
178.4103977445717
 35
0.0000000349246037
146
0.0
 13
0.0
 23
0.0
 33
0.0
 16
1.0
 26
0.0
 36
0.0
 17
0.0
 27
1.0
 37
0.0
 76
     0
330
15
331
2BFD
  0
MLINESTYLE
  5
1B
102
{ACAD_REACTORS
330
E
102
}
330
E
100
AcDbMlineStyle
  2
STANDARD
 70
     0
  3

 62
     0
 51
90.0
 52
90.0
 71
     2
 49
0.5
 62
   256
  6
BYLAYER
 49
-0.5
 62
   256
  6
BYLAYER
  0
ACDBPLACEHOLDER
  5
28B8
102
{ACAD_REACTORS
330
28B7
102
}
330
28B7
  0
DICTIONARYVAR
  5
3597
102
{ACAD_REACTORS
330
3596
102
}
330
3596
100
DictionaryVariables
280
     0
  1
96
  0
ENDSEC
  0
EOF
